This file was generated by Ched 2.7.0.0.
#TITLE ""
#ARTIST ""
#DESIGNER ""
#DIFFICULTY 0
#PLAYLEVEL
#SONGID ""
#WAVE ""
#WAVEOFFSET 0
#JACKET ""
#REQUEST "ticks_per_beat 480"
#00002: 4
#BPM01: 95
#00008: 01
#TIL00: ""
#VOLUME: ""
#HISPEED 00
#MEASUREHS 00
#01319:0013
#01318:13
#01315:0013000000001300
#0131b:00130013
#01314:0013
#01312:00130000
#01310:0041
#01412:0013000000001300
#01415:0000001300130013
#01418:0013000013001300
#0141b:0000001300000013
#00219:0000000012000012
#00215:000000000000000000000012000000000000000000120000
#00217:000000000000000000000000000000000012000000000000
#00315:0000000012000012
#00319:0000000012000012
#00317:000000000000000000000000000000000012000000000000
#01218:00000013
#01215:000000000000000000000000000000000013000000000013
#01214:00130000
#01219:00130000
#0121b:0000001313000000
#01217:0013000000000000
#01216:0000001300000000
#01212:0013000000000000
#03418:130000000000000000000013000000000000000000000000
#03412:0013
#03414:0000000000330000
#03415:00000033
#03516:13
#03514:0013000000000000
#03512:00130000
#0351b:1323
#03519:0013000000000000
#03517:00130000
#03714:13
#03719:13
#0371b:0000001300000000
#03712:0000000000130013
#03718:00130000
#03715:00000013
#03812:0000000000130000
#0381b:0000001300000000
#03818:00130013
#03815:0000000000000013
#03912:1313
#03915:0000000000130000
#0391b:13
#0401b:1300001300000000
#04018:0013000000130013
#04012:000000000000000000130000000000000000000000000024
#04015:00001313
#0161b:0013001300000000
#01615:0013000013000000
#01612:0000001300000000
#01618:00000013
#01715:00000013
#01718:0000130000000013
#01712:00130000
#01710:0041
#0181b:130000000000000000000000000000000000000000130013
#01812:0013130000001300
#01818:0013130013000000
#01815:000000000000000000000000000000130000000000130013
#01912:0000003300001300
#01915:0000130000000013
#0191b:00130000
#01918:0000003300000000
#0201b:130000000000000000000013000000000000000013000000
#02012:00131300
#02018:000000130000000013000000000000130000000000000000
#02015:000000000000000000130000000000000013000000130000
#02514:0013130000000000
#02515:0013
#02518:0000000000130000
#0251b:00000013
#02512:0000000000000013
#02519:0013130000000000
#02510:0041
#0261b:0013
#02615:0000001300001300
#02618:0000000000130000
#02612:0000000013000013
#0261a:003300000000000000000000
#02718:0013000000000013
#0271b:00130013
#02715:1300001300001300
#02712:0000000000000013
#02915:130000000000000000000000000000000000130000000013
#02912:0000000000130000
#0291b:0000000000130000
#02918:0000000000000013
#04114:00130000
#0411a:0000001300000000
#04118:0000000000130013
#04115:00000013
#04119:00130000
#04113:0000001300000000
#0411b:0023
#04112:0023
#0411f:0021
#04215:1300001300130013
#04212:0013000000000000
#04218:00001313
#0421b:0013000000000000
#04210:0041
#05415:1212
#05419:0012000000120000
#05418:0000000000000012
#0541a:0000001200000000
#05414:00000012
#05515:0012000000000000
#05519:001200000000000000000000
#05514:00000012
#0551a:00000012
#05619:0012000012001212
#0561b:0000001200000000
#05615:120000000000000000000012000000000000120000120000
#05613:0000000000120000
#04415:0013
#04418:0000001300001313
#04412:13
#0441b:13
#04515:0000001300130000
#04518:00130013
#0451b:0000000023000013
#04512:0023
#04615:130033000000000000130000000000000000130000000000
#04618:0000000000130000
#04612:0000000013000013
#0461b:0013
#04818:13001313
#04815:0000001300000013
#05116:13
#05118:00130000
#05115:00000013
#0511b:1300001300000000
#05112:0000000000000013
#05014:0000000000000013
#05019:0000000000000013
#05017:00000013
#05018:00130000
#05012:00130023
#0521b:00130000
#05218:0000001300000000
#05212:00000013
#05215:0000000000000013
#04915:00130000
#0491b:00130000
#0531b:00130000
#05312:00130000
#05314:0000003300001200
#0531a:00000012
#05319:0000003300000000
#02118:00130013
#02115:0000000000000013
#02112:00130000
#02212:1313
#0221b:000000130000330000000000000000000000000000130013
#02218:00000013
#02215:000000000000000000000000000000130000000000130013
#02412:13130000
#0241b:0013001300000000
#02418:13131300
#02415:0013001300001300
#02318:00130013
#02315:0000000000000013
#02312:00130000
#0041b:00130013
#00412:00130000
#00410:0041
#00518:1300000000130013
#00515:00130013
#00512:0013
#00615:13
#00612:00130013
#0061b:00130000
#00619:0000003300000000
#00614:0000003300000000
#00814:00130000
#00819:00130000
#0081b:0000003300001300
#00818:0000000000000013
#00812:0000003300000000
#00715:1300000000130013
#00718:00130013
#0071b:0013
#00915:1300130000130000
#00912:0013000000000000
#00918:00001313
#0091b:0000130000000013
#01012:1300003300000013
#01018:13
#01015:00000013
#01019:00130000
#01014:00130000
#0101b:0000003300000000
#01115:13130000
#01118:0013000000000000
#0111b:00130000
#01112:0000001300000000
#01512:00000013
#01518:00000013
#02814:0013130000000000
#02819:0013130000000000
#0281b:0000001300000000
#0301b:130000000000130000000000130000000000000000000013
#03018:0013000000001313
#03012:000013000000130000000000000000000000130000130000
#03015:0013
#03014:0000000000130000
#03019:0000000000130000
#03010:0041
#03115:1313000000130000
#0311b:000013000000000000000000000000130000000000130000
#03118:000000000013000013000000000000000000130000000000
#03112:0000131300000000
#03215:000000130000000000000000000000000000000013000000
#03218:000000000000000000130000130000000013000000000000
#03212:0000000013130000
#03615:000000000000000000000013000000000000000000000000
#03612:13
#0361b:0013
#03619:0000000000330000
#03618:00000033
#0331f:0011
#03315:0023
#04312:0013000000000000
#04318:13001313
#0431b:0013000000000000
#04315:0000001300130013
#04718:1300001300130000
#04715:00000013
#04712:0000000013000013
#0471b:0013
#03452:0053
#03552:00130000
#03557:00130000
#03754:13
#03759:13
#0375b:0000002300000000
#03758:00530000
#03752:0000000000000023
#03755:00000063
#04052:000000000000000000000000000000000000000000000014
#0405b:63
#04058:0023000000000000
#03952:6353
#03955:0000000000230000
#0395b:53
#04455:0053
#04458:0000000000000053
#0445b:53
#04452:53
#04252:0013000000000000
#0425b:0013000000000000
#04858:6363
#04855:0000000000000063
#04955:00630000
#0495b:00630000
#05158:00630000
#05155:00000063
#05152:0000000000000023
#0515b:0000002300000000
#0525b:00630000
#05258:0000002300000000
#05252:00000063
#05255:0000000000000023
#0535b:00630000
#05352:00530000
#02158:00530000
#02152:00530000
#0215b:0013
#02155:0013
#02358:00630000
#02352:00630000
#02355:0013
#0235b:0013
#00854:00630000
#00859:00630000
#00452:00630000
#0045b:00630000
#0135b:00130063
#01355:00000063
#01352:00130000
#01452:0013000000000000
#01458:0013000000000000
#0145b:0000000000000053
#01455:0000000000000053
#0165b:0013000000000000
#01655:0013000053000000
#01658:00000063
#01552:00000053
#01558:00000053
#02758:0000000000000053
#02752:0000000000000053
#02755:0000005300000000
#02955:53
#02952:0000001300000000
#03255:0053000000000000
#0315b:0000000000000053
#0385b:0000002300000000
#03858:00530000
#00652:00530000
#0065b:00530000
#01054:00530000
#01059:00530000
#01758:00530000
#01752:00530000
#01755:0013
#0175b:0013
#01955:00530000
#0195b:00530000
#01958:0013
#01952:0013
#02055:0000000000000053
#02458:0063
#02455:00000053
#0365b:0063
#05058:00530000
#05052:00530000
#0225b:0053000000000000
#04352:0013000000000000
#0435b:0013000000000000
#04655:53
#04758:53
#0305b:00130000
#03052:00130000
#0043b0:00130000
#004380:0023
#004321:00130000
#004351:0023
#006321:00130000
#006341:0000003300000000
#006351:0023
#0063b0:00130000
#006390:0000003300000000
#006380:0023
#008340:00130000
#008320:0000003323000000
#008391:00130000
#0083b1:0000003323000000
#010341:00130000
#010321:0000003323000000
#010390:00130000
#0103b0:0000003323000000
#011380:000000000000000000000000130000000033000000230000
#0133b0:00000013
#014380:23
#013351:00000013
#014321:23
#0143b1:0000000000000013
#015381:0023000000000000
#014350:0000000000000013
#015320:0023000000000000
#015320:00000013
#016350:23
#015381:00000013
#0163b1:23
#016351:0013
#016321:0000000000230000
#016381:00000013
#0163b1:0000000000000023
#017381:00130000
#0173b1:0023
#017320:00130000
#017350:0023
#019350:00130000
#019320:0000003323000000
#0193b1:00130000
#019381:0000003323000000
#020351:0000000000000013
#021321:0023000000000000
#021381:00130000
#0213b1:0023
#021320:00130000
#021350:0023
#0223b0:0013330000000000
#022380:002300
#023380:00130000
#0233b0:0023
#023321:00130000
#023351:0023
#024381:0013
#0243b1:0000000000230000
#024351:00000013
#024321:0000000000000023
#025381:000000000000000000000000000000000000000000000013
#0263a1:003300000000000000000000
#0263b1:000000000023000000000000000000000000000000000000
#027351:0000001300000000
#027321:0023
#027381:0000000000000013
#0283b1:23
#027320:0000000000000013
#028350:23
#028350:0000000013230000
#028380:0000000000001323
#029350:13
#029320:0000332300000000
#0313b0:0000000000000013
#032380:23
#032350:0013000000000000
#032320:00230000
#0323b0:0000000000000013
#0333b0:00230000
#033380:0000000000132300
#034350:0013230000000000
#034320:0013
#034340:0000000000330000
#034350:0000000000003323
#035350:0000000000132300
#036380:0013230000000000
#0363b0:0013
#036390:0000000000330000
#036380:0000000000003323
#037380:00132300
#0373b0:0000003300000000
#037350:00000013
#037320:0000000000000033
#038350:23
#038380:00132300
#0383b0:0000003300000000
#039320:13
#039350:00230000
#0393b1:13
#039381:00230000
#039321:00001323
#039351:0000000000530000
#0403b1:13230000
#040381:0053000000000000
#0443b1:13
#044381:000000000023000000000000000000000000000000000000
#044320:13
#044350:000000000023000000000000000000000000000000000000
#044350:0013
#044320:0000000000230000
#044380:0000000000000013
#0453b0:23
#046350:133300000000000000000000
#046320:000000000023000000000000000000000000000000000000
#047380:13
#0473b0:0023000000000000
#048380:13
#0483b0:0000000000000023000000000000000000000000000000000000000000000000
#048380:0013
#0483b0:0000000000230000
#048350:0000000000000013
#049320:23
#049350:00130000
#049320:0023
#0493b1:00130000
#049381:0023
#050381:00130000
#0503b1:0023
#050320:00130000
#050350:0023
#051380:00132300
#0513b0:0000005300000000
#051350:00000013
#051320:0000000000000053
#052350:23
#0523b0:00132300
#052380:0000005300000000
#052320:00000013
#052350:0000000000000033
#053320:23
#0533b0:00130000
#053390:0000003300000000
#053380:0023
#053321:00130000
#053341:0000003300000000
#053351:0023
