This file was generated by Ched 2.7.0.0.
#TITLE ""
#ARTIST ""
#DESIGNER ""
#DIFFICULTY 0
#PLAYLEVEL
#SONGID ""
#WAVE ""
#WAVEOFFSET 0
#JACKET ""
#REQUEST "ticks_per_beat 480"
#00002: 4
#BPM01: 83
#00008: 01
#TIL00: ""
#VOLUME: ""
#HISPEED 00
#MEASUREHS 00
#0351f:11
#03515:13130053
#03518:0012000000000000
#03516:000000000000000000000000000000000000000000000012
#03519:0000001200001200
#0351c:00000012
#03512:00000053
#00115:12
#00112:0052
#00618:5200001200000000
#00615:001200
#0061b:0000005200000000
#00616:0000000000000052
#00619:00000052
#0061c:0000000000520000
#00512:12
#0051b:52
#00515:0052
#0071c:12
#00713:52
#00719:0052
#00816:5200001216000014
#00819:001200
#00813:0000005200140000
#00818:00000016
#00915:2300000013130000
#00918:00140014
#0091b:23
#00910:41
#01018:1300000013130013
#01014:00140000
#01012:53000026
#01115:1313000013130000
#01116:00140014
#0111b:53
#01218:1313000000001300
#01216:00140000
#01212:5313
#01215:0013
#0121b:00005313
#00319:12
#00313:52
#0031c:0052
#01618:131400
#01617:000000000000000000000014000000000000000000130000
#01616:000000000000001400130000
#01612:540000000000000000531400
#01613:000000000000000000000000130000000000000000000014
#01615:00130000
#01614:0000001300000000
#0161b:23
#02015:13
#02018:0000000052120000
#0201a:540000000014
#02016:0000000000000013
#02019:000000000000000000000000000000000000000000000014
#02012:23
#02010:41
#02115:130000000000000000000000230000000013000000000000
#02118:000014000000130000000013000000000000230000000000
#02112:0000001400000024
#0211a:0000000000140000
#02114:00530000
#02217:0013
#02213:0013
#0221b:23
#02218:0053000000000000
#02215:00530000
#02212:6400005300000000
#02316:0013
#0231a:0013
#02312:13
#02315:0053000000000000
#02318:00530000
#0231b:0000005300000000
#0241b:13
#02418:0053000000000000
#02415:00530000
#02412:0000005300000000
#02416:0000000000530000
#02419:0053
#02413:00000053
#0241a:0000000000000053
#02517:53130000
#02515:0000001300001300
#02518:0000000000130000
#02512:0000000024000013
#0251a:00000024
#02510:41
#0251b:0053
#02613:0013
#0261b:23
#02618:0053000000000000
#02615:00530000
#02612:0000005300000000
#0271a:0013
#02712:23
#02715:0053000000000000
#02718:00530000
#0271b:0000005300000000
#02719:52
#0271c:52
#02818:13005353
#02815:5200005300000053
#02812:52530000
#0281b:0053000000530000
#02918:1300000023132300
#02915:0000130013231323
#0291b:23
#02912:53
#03118:12000012
#0311b:12
#03116:000000120000000000000000120000000012000000000000
#03114:0000000000000012
#03119:0000120000520000
#03110:41
#0311c:0000000000520000
#03217:1200000000520000
#0321a:1200000000520000
#03215:0012000000000000
#03218:00120000
#03213:0000001200000000
#03214:0000000000120000
#03212:0000000000000012
#03216:00000012
#03219:00000012
#03319:12
#0331c:12
#03314:0012001200120012
#03316:00120012
#0331b:0000000000520000
#03318:0000000000520000
#03417:12120000
#0341a:12001414
#03414:000000120000000000000000000000000014000000000000
#03418:000000000000000000120000000000140000000000000012
#03416:000000000000000000000012000000000000000000120000
#03412:000000000000001400000000
#03618:130000000000130000000012000000000000000000000000
#03616:000000000012000000000000000000000000000000000000
#03615:00001313
#03619:0000000000120000
#0361a:0000000000000012
#0361b:00530000
#03612:00000053
#03712:14
#03718:00120000
#03715:00120000
#03716:00000012
#03719:00000012
#0371b:0053
#0381b:13
#03812:13000025
#03819:00000025
#03816:000000000000000000000000000000000000000000000000000000000000000000000000000000000000000000000000000000000000000000000000000000000000000000000000000000000000000000000000000000000000000000000000000000000000000000000000000000000000000000000000000000000000000000000000000000000000000000000000000000000000000000000000000000000000000000000000000000000000000000000000000000000000000000000000000000000000000000000000000000000000000000000000000000000000000000000000000000000000000000000000000000000000000000000000000000000000000000000000000000000000000000000000000000000000000000000000000000000000000000000000000000000000000000000000000000000000000000000000000000000000000000000000000000000000000000000000000000000000000000000000000000000000000000000000000000000000000000000000000000000000000000000000000000000000000000000000000000000000000000000000000000000000000000000000000000000000000000000000000000000000000000000000000000000000000000000000000000000000000000000000000000000000000000000000000000000000000000000000000000000000000000000000000000000000000000000000000000000000000000000000000000000000000000000000000000000000000000000000000000000000000000000000000000000000000000000000000000000000000000000000000000000000000000000000000000000000000000000000000000000000000000000000000000000000000000000000000000000000000000000000000000000000000000000000000000000000000000000000000000000000000000000000000000000000000000000000000000000000000000000000000000000000000000000000000000000000000000000000000000000000000000000000000000000000000000000000000000000000000000000000000000000000000000000000000000000000000000000000000000000000000000000000000000000000000000000000000000000000000000000000000000000000000000000000000000000000000000000000000000000000000000000000000000000000000000000000000000000000000000000000000000000000000000000000000000000000000000000000000000000000000000000000000000000000000000000000000000000000000000000074540000000000000000000000000000000000000000000000000000000000000000000000000000000000000000000000000000000000000000000000000000000000000000000000000000000000000000000000000000000000000000000000000000000000000000000000000000000000000000000000000000000000000000000000000000000000000000000000000000000000000000000000000000000000000000000000000000000000000000000000000000000000000000000000000000000000000000000000000000000000000000000000000000000000000000000000000000000000000000000000000000000000000000000000000000000000000000000000000000000000000000000000000000000000000000000000000000000000000000000000000000000000000000000000000000000000000000000000000000000000000000000000000000000000000000000000000000000000000000000000000000000000000000000000000000000000000000000000000000000000000000000000000000000000000000000000000000000000000000000000000000000000000000000000000000000000000000000000000000000000000000000000000000000000000000000000000000000000000000000000000000000000000000000000000000000000000000000000000000000000000000000000000000000000000000000000000000000000000000000000000000000000000000000000000000000000000000000000000000000000000000000000000000000000000000000000000000000000000000000000000000000000000000000000000000000000000000000000000000000000000000000000000000000000000000000000000000000000000000000000000000000000000000000000000000000000000000000000000000000000000000000000000000000000000000000000000000000000000000000000000000000000000000000000000000000000000000000000000000000000000000000000000000000000000000000000000000000000000000000000000000000000000000000000000000000000000000000000000000000000000000000000000000000000000000000000000000000000000000000000000000000000000000000000000000000000000000000000000000000000000000000000000000000000000000000000000000000000000000000000000000000000000000000000000000000000000000000000000000000000000000000000000000000000000000000000000000000000000000000000
#04114:001400
#04115:000000000000000000000014000000000000000000000000
#04116:000000000000000000000000000014000000000000000053
#0411a:000000000000005300001400
#04119:000000000000000000000053000000000000000000000014
#04117:00000013
#04118:245300
#0411b:00000053
#04218:000014000000000000000000000000000000000000140000
#04217:000000000014000000000000000000000000000000000000
#04216:000000001400140000140000
#04214:000000000053000000000000000000140000000000000000
#0421b:00000013
#04215:005300000000000000000000
#04213:005300
#04212:0053
#04518:0000000052120000
#0451a:000000140000000000001400
#04519:000000000000000000000000000000000000000000000014
#04512:00140000
#04514:24
#04516:000000000000000000000000000000000000000000000053
#04618:000014000000130000000000000000130000230000000000
#04615:000053000000000000130000230000000000000000000000
#04619:000000000000000000000013000000000000000000000000
#04614:000000000000530000000000000000000013000000000000
#0461b:00130023
#04612:0000000023000013
#03918:0013000023000000
#0391b:1300001300000000
#03912:2313
#03915:23231300
#0391f:21
#03910:0041
#0401b:13
#04015:13
#04018:13
#0401a:0000000014000054
#04012:0000000000541400
#04016:00000054
#04315:00001323
#04318:0000001613002300
#0431b:0013
#04312:2464266600002300
#04319:0025650000000000
#0431a:24
#04418:13
#04415:13
#04412:1300000014000054
#0441a:0000000000541400
#04416:00000054
#0481c:0000001200000000
#04819:000000521200000000000000
#0481b:0000000000520000
#0481a:0000000000000052
#0501c:0000001200000000
#05019:000000521200000000000000
#0501b:0000000000520000
#0501a:0000000000000052
#05012:53
#05015:0053
#0511b:00120000
#05113:00000012
#05118:1252
#05116:0012
#05112:53
#01318:0000001314000000
#01315:1223000000000000
#01312:0013000000001500
#0131b:0000122300000000
#01319:00220015
#01313:22
#01314:0024
#01818:0000001600002300
#0181b:00000023
#01812:2464266600000000
#01819:0025650000000000
#0181a:24
#01815:00000023
#01714:000014000000000000000000000000140000000000000000
#01715:000000000014000000000000000000000000000000000000
#01716:000000001400140000140000
#01718:1300000000000014
#01719:0013000000000000
#0171a:00130000
#01712:00000013
#01412:23
#01415:53230000
#01418:5323
#01410:41
#00215:52
#00218:0000005200000000
#00216:0000000000000052
#00219:00000052
#0021c:0000000000520000
#00418:0000000000000052
#00415:00000052
#00412:0000000000520000
#00419:52
#00416:0000005200000000
#01516:0000000000000054
#0151a:00000054
#01512:0000000000540000
#01916:0000000000000054
#01912:00000054
#0191a:0000000000540000
#03012:53
#03018:53
#03015:63
#0301b:63
#05218:0053
#05215:00000053
#0531b:53
#05312:53
#05317:0052
#05419:54005272
#05413:54
#05417:00520000
#05415:0000000052000072
#0541c:0000000000720000
#04719:00520052
#04919:00520052
#04915:53
#05517:62
#05512:72
#00958:00140014
#01054:00140000
#01156:00140014
#01256:00140000
#01252:0033
#01255:0033
#0125b:00000043
#01258:00000043
#01452:00000013
#01455:00000013
#01458:00000013
#0155b:00130000
#01558:00130000
#01555:00130000
#01658:13
#0165b:13
#01656:00000013
#01952:00130000
#01955:00130000
#01958:00130000
#0185b:00000013
#01858:00000013
#01855:00000013
#02055:13
#02052:13
#02056:0000000000120000
#02058:0000000000120000
#02155:0013
#02158:00130013
#02257:00006313
#0225b:00000013
#02253:0063
#02356:00005313
#0235a:0053
#02352:00000013
#02552:0014
#0255a:00000014
#02653:0063
#02656:00000013
#02657:0013
#0275a:0053
#02757:00000013
#02756:0013
#0345a:00000014
#03752:14
#0385b:63
#03852:53000015
#03859:00000015
#04558:1400000000120000
#04556:0000000000120000
#04554:14
#04658:00130013
#04655:0013
#0465b:00130013
#04652:0013
#04358:00006313
#04352:00000013
#04355:00006313
#0435b:0063
#03955:00006313
#03958:00006313
#0395b:00000013
#03952:0063
#04058:63130000
#04055:63130000
#04052:00130000
#0405b:63
#04455:53130000
#04458:53130000
#0445b:00130000
#04452:53
#04158:14
#04154:14
#04157:00000013
#0515b:00220000
#05153:00000022
#05158:62
#05156:0062
#01354:0014
#01358:0014
#01352:00000055
#01359:00000065
#00856:0016
#00858:00000016
#0175b:0013
#01752:00000013
#04256:00004434
#001320:1222
#001351:0012
#002351:22
#002380:120000000000000032220000000000000000000000000000
#0023c0:0000000012220000
#002391:0000000000122200
#002360:0000000000001222
#002331:0000000000000012
#003331:22
#0033c0:1222
#003391:0012
#004391:22
#004360:120000000000000032220000000000000000000000000000
#004320:0000000012220000
#004351:0000000000122200
#004380:0000000000001222
#0043b1:0000000000000012
#0053b1:22
#005350:1222
#005381:0012
#006381:22
#0063b0:120000000000000032220000000000000000000000000000
#0063c0:0000000012220000
#006391:0000000000122200
#006360:0000000000001222
#006331:0000000000000012
#007331:22
#007390:1222
#007361:0012
#008361:22
#008330:120000000000000032220000000000000000000000000000
#009320:13
#010320:23
#0103b1:13
#0113b1:23
#011320:13
#012320:23
#0123b1:1323
#013321:00000015
#013351:0000000000000053
#014351:23
#013390:00000015
#013380:0000000000000053
#014380:23
#014322:13000023
#014350:00130023
#014381:00001323
#0153b0:13230000
#015381:13230000
#015352:13230000
#015321:0000000014240000
#0153a2:0000000000142400
#015361:0000000000001424
#015322:0000000000000014
#016322:24
#016322:0000000000132300
#0173b2:0000001323000000
#018322:1424000000000000
#018391:0015250000000000
#018322:0000162600000000
#0183b2:00001323
#018381:00001323
#018350:00001323
#019321:13230000
#019350:13230000
#019382:13230000
#0193a0:0000000014240000
#019322:0000000000142400
#019360:0000000000001424
#0193a2:0000000000000014
#0203a2:24
#020382:000000000000000000000012220000000000000000000000
#020360:0000000012220000
#021340:0013230000000000
#021320:0000000000000014
#022320:24
#022382:1323000000000000
#022350:0013230000000000
#022322:0000132300000000
#022370:0000001333000000
#0223b0:00000023
#022332:0013
#022372:00000023
#023352:1323000000000000
#023380:0013230000000000
#0233b2:0000132300000000
#023360:0000001333000000
#023320:00000023
#0233a2:0013
#023362:00000023
#024382:1323000000000000
#024350:0013230000000000
#024322:0000132300000000
#024390:0000001323000000
#024362:0000000013230000
#024330:0000000000132300
#0243a2:0000000000001323
#024370:0000000000000013
#025370:23
#0253b2:1323
#026382:1323000000000000
#026350:0013230000000000
#026322:0000132300000000
#026370:0000001323000000
#026332:0013
#026362:00000023
#0263c0:00000012
#0273c0:22
#026391:00000012
#027391:22
#027352:1323000000000000
#027380:0013230000000000
#0273b2:0000132300000000
#027360:0000001323000000
#0273a2:0013
#027372:00000023
#027320:00000012
#028320:22
#027351:00000012
#028351:22
#0283b2:1323000000000000
#028320:0013230000000000
#028352:0000132300000000
#028380:0000001323000000
#0283b2:0000000013230000
#028380:0000000000132300
#028352:0000000000001323
#028320:0000000000000013
#029320:23
#0293b2:13
#0303b2:23
#029320:00130000
#030320:23
#029381:0000000000000013
#030381:23
#029353:0000000000000013
#030353:23
#031390:0000000012220000
#0313c1:0000000012220000
#032371:0000000012220000
#0323a0:0000000012220000
#033380:0000000012220000
#0333b1:0000000012220000
#035321:13000023
#035350:00001323
#0363b0:13230000
#036320:00001323
#0373b0:1323
#037321:0013
#038321:33
#038361:000000000000000000000000000000000000000000000000000000000000000000000000000000000000000000000000000000000000000000000000000000000000000000000000000000000000000000000000000000000000000000000000000000000000000000000000000000000000000000000000000000000000000000000000000000000000000000000000000000000000000000000000000000000000000000000000000000000000000000000000000000000000000000000000000000000000000000000000000000000000000000000000000000000000000000000000000000000000000000000000000000000000000000000000000000000000000000000000000000000000000000000000000000000000000000000000000000000000000000000000000000000000000000000000000000000000000000000000000000000000000000000000000000000000000000000000000000000000000000000000000000000000000000000000000000000000000000000000000000000000000000000000000000000000000000000000000000000000000000000000000000000000000000000000000000000000000000000000000000000000000000000000000000000000000000000000000000000000000000000000000000000000000000000000000000000000000000000000000000000000000000000000000000000000000000000000000000000000000000000000000000000000000000000000000000000000000000000000000000000000000000000000000000000000000000000000000000000000000000000000000000000000000000000000000000000000000000000000000000000000000000000000000000000000000000000000000000000000000000000000000000000000000000000000000000000000000000000000000000000000000000000000000000000000000000000000000000000000000000000000000000000000000000000000000000000000000000000000000000000000000000000000000000000000000000000000000000000000000000000000000000000000000000000000000000000000000000000000000000000000000000000000000000000000000000000000000000000000000000000000000000000000000000000000000000000000000000000000000000000000000000000000000000000000000000000000000000000000000000000000000000000000000000000000000000000000000000000000000000000000000000000000000000000000000000000000000000000000000000000024000000000000000000000000000000000000000000000000000000000000000000000000000000000000000000000000000000000000000000000000000000000000000000000000000000000000000000000000000000000000000000000000000000000000000000000000000000000000000000000000000000000000000000000000000000000000000000000000000000000000000000000000000000000000000000000000000000000000000000000000000000000000000000000000000000000000000000000000000000000000000000000000000000000000000000000000000000000000000000000000000000000000000000000000000000000000000000000000000000000000000000000000000000000000000000000000000000000000000000000000000000000000000000000000000000000000000000000000000000000000000000000000000000000000000000000000000000000000000000000000000000000000000000000000000000000000000000000000000000000000000000000000000000000000000000000000000000000000000000000000000000000000000000000000000000000000000000000000000000000000000000000000000000000000000000000000000000000000000000000000000000000000000000000000000000000000000000000000000000000000000000000000000000000000000000000000000000000000000000000000000000000000000000000000000000000000000000000000000000000000000000000000000000000000000000000000000000000000000000000000000000000000000000000000000000000000000000000000000000000000000000000000000000000000000000000000000000000000000000000000000000000000000000000000000000000000000000000000000000000000000000000000000000000000000000000000000000000000000000000000000000000000000000000000000000000000000000000000000000000000000000000000000000000000000000000000000000000000000000000000000000000000000000000000000000000000000000000000000000000000000000000000000000000000000000000000000000000000000000000000000000000000000000000000000000000000000000000000000000000000000000000000000000000000000000000000000000000000000000000000000000000000000000000000000000000000000000000000000000000000000000000000000000000000000000000000000000000000000000000000
#0383b0:13
#038360:0024
#039320:1353
#039350:00000023
#039351:00135300
#039381:00000023
#039383:0013
#0393b3:00000023
#0403b1:13
#040381:00230000
#040383:13
#040353:00230000
#040350:13
#040320:00230000
#040323:0000000014240000
#040360:0000000000142400
#0403a3:0000000000001424
#040340:0000000000000014
#041340:24
#041380:000000132300000000000000
#041390:000000000000000000130023000000000000000000000000
#0413a0:000000000000132300000000
#0413b0:0000000000132300
#041360:000000000000000000000000000000000000000000130023
#042350:132300000000000000000000
#042340:000000130023000000000000000000000000000000000000
#042330:000000132300000000000000
#042320:0000001323000000
#043320:1424000000000000
#043393:0015250000000000
#043320:0000162600000000
#0433b0:0013
#043380:00000023
#043353:0013
#043323:00000023
#043381:0013
#043351:00000023
#044323:13
#044353:00230000
#044351:13
#044381:00230000
#044380:13
#0443b0:00230000
#0443a1:0000000014240000
#044360:0000000000142400
#044321:0000000000001424
#044380:0000000000000014
#045380:24
#045380:000000000000000000000012220000000000000000000000
#045361:0000000012220000
#045361:000000000000000000000000000000000000000000130023
#046351:132300000000000000000000
#046341:0013230000000000
#047351:13
#049351:23
#047390:12220000
#047390:00001222
#048390:12220000
#0483b0:0000000012220000
#0483a0:0000000000001222
#049390:12220000
#049323:13
#050323:23
#049390:00001222
#050390:12220000
#050351:1323
#0503b0:0000000012220000
#050323:0013
#051323:23
#0503a0:0000000000001222
#051380:1222
#0513b0:00520000
#051363:0012
#051333:00000052
#052363:32
#052353:00005323
#052380:1223
#0523b1:0013
#0533b1:23
#052320:00000013
#053320:23
#053363:14
#053373:0022
#0533a1:0012
#054391:24
#053340:0012
#054330:24
#054373:12220000
#054353:000012220000
#054391:0000001222000000
#0543c0:0000000012220000
#054391:0000000000122200
#054350:0000000000001222
#054321:0000000000000012
#055321:22
