This file was generated by Ched 2.7.0.0.
#TITLE ""
#ARTIST ""
#DESIGNER ""
#DIFFICULTY 0
#PLAYLEVEL
#SONGID ""
#WAVE ""
#WAVEOFFSET 0
#JACKET ""
#REQUEST "ticks_per_beat 480"
#00002: 4
#BPM01: 150
#00008: 01
#TIL00: ""
#VOLUME: ""
#HISPEED 00
#MEASUREHS 00
#00914:14
#0091a:0014
#01012:14
#01018:0014
#01114:14
#0111a:0014
#01212:14
#01218:0014
#01314:14
#0131a:0014
#0161a:1414
#01614:00140000
#01712:1414
#01718:00140000
#0181a:1414
#01814:00140000
#07918:14140000
#07914:00001414
#0811a:14140000
#08112:00001414
#08218:14
#08214:00140000
#0821a:0014
#08212:00000014
#08318:14140000
#08314:00001414
#00818:0014
#00812:24
#00810:41
#0281a:1414
#02814:00140014
#02918:1414
#02912:00140014
#04014:00140014
#0401a:2414
#0401f:21
#04118:14
#0411a:0034003400000000
#04110:41
#04212:1414
#04218:00140014
#04314:14
#04312:0034343400000000
#0461a:14
#04614:00140000
#04618:0014
#04612:00000014
#04718:14
#04714:00140000
#0471a:0014
#04812:1414
#04818:00140014
#04914:14
#04912:0034003400000000
#0501a:1414
#05014:00140014
#05118:14
#0511a:0034343400000000
#05412:14
#05412:14
#05418:00140000
#05414:0014
#0541a:00000014
#05514:14
#05512:0000003400000000
#05812:14
#0581a:00140000
#05814:0014
#05818:00000014
#06412:14
#06418:00140000
#06414:0014
#0641a:00000014
#06410:41
#07218:14
#07212:00140000
#0721a:0014
#07214:00000014
#0771a:14140000
#07712:00001414
#06514:14
#06512:0034343400000000
#0001a:1414
#00112:1414
#00218:1414
#00314:1414
#0041a:1414
#00512:1414
#01912:1414
#01918:00140000
#02018:14
#02014:00140000
#0201a:0014
#02010:41
#02114:14
#02118:00140000
#02112:0014
#02218:14
#02214:00140000
#0221a:0014
#02314:14
#02318:00140000
#02312:0014
#02418:1414
#02412:00140000
#02514:1414
#0251a:00140000
#02618:1414
#02612:00140000
#02714:1414
#0271a:00140000
#03014:0014
#03018:00000014
#03118:0014
#03114:00000014
#0321a:1414
#0321f:11
#0331a:1414
#03612:1414
#03712:1414
#05912:14
#05914:0034003400000000
#0601a:0014
#06012:00000014
#06018:14
#06014:00140000
#0661a:14
#06612:00140000
#06618:0014
#06614:00000014
#0671a:14
#06718:0034003400000000
#06812:0014
#0681a:00000014
#06814:14
#06818:00140000
#0731a:14
#07318:0000003400000000
#0761a:14
#07612:00140000
#07618:0014
#07614:00000014
#07610:41
#0781a:14
#07812:00140000
#07818:0014
#07814:00000014
#08018:14
#08014:00140000
#0801a:0014
#08012:00000014
#0441a:24
#04412:0024
#0451a:24
#04512:0024
#05212:24
#0521a:0024
#05210:41
#05312:24
#0531a:0024
#06212:24
#0621a:0024
#06314:24
#06318:0024
#0701a:24
#07012:0024
#07118:24
#07114:0024
#0071a:0034343434342400
#01512:0034343434342400
#00618:00343434
#01414:00343434
#0611a:5454545454000000
#06912:5454545454000000
#04158:64
#04354:54
#0445a:14
#04452:0014
#0455a:14
#04552:0014
#04954:54
#05158:64
#05252:14
#0525a:0014
#05352:14
#0535a:0014
#05554:54
#06252:14
#0625a:0014
#06354:14
#06358:0014
#0705a:14
#07052:0014
#07158:14
#07154:0014
#06554:54
#0075a:00000014
#01552:00000014
#05952:64
#0675a:54
#0735a:54
#0063a0:14
#006380:00343434
#007380:34
#0073a0:0034343434342400
#014320:14
#014340:00343434
#015340:34
#015320:0034343434342400
#0303a0:14240000
#031320:14240000
#034340:14
#034320:0024
#035380:14
#0353a0:0024
#038380:14
#0383a0:0024
#039340:14
#039320:0024
#041380:14
#0413a0:0034003400002400
#043340:14
#043320:0034343424000000
#049340:14
#049320:0034003400002400
#051380:14
#0513a0:0034343424000000
#055340:14
#055320:0000003424000000
#056380:14
#0563a0:0034
#057380:34
#0573a0:0024
#059320:14
#059340:0034003400002400
#065340:14
#065320:0034343424000000
#0673a0:14
#067380:0034003400002400
#0733a0:14
#073380:0000003424000000
#074340:14
#074320:0034
#075340:34
#075320:0024
#084380:14
#0873a0:0024
#0619a0:1424
#069920:1424
