This file was generated by Ched 2.7.0.0.
#TITLE ""
#ARTIST ""
#DESIGNER ""
#DIFFICULTY 0
#PLAYLEVEL
#SONGID ""
#WAVE ""
#WAVEOFFSET 0
#JACKET ""
#REQUEST "ticks_per_beat 480"
#00002: 4
#BPM01: 194
#00008: 01
#TIL00: ""
#VOLUME: ""
#HISPEED 00
#MEASUREHS 00
#00212:14
#0031a:14
#00412:14
#00518:14
#00614:14
#00718:14
#00814:14
#0131a:14
#01412:14
#01518:14
#01614:14
#01718:16
#02112:16
#0261a:14
#02712:14
#02812:14
#02918:14
#03014:14
#03318:14
#03414:14
#0351a:14
#03612:14
#0411a:14
#04110:41
#04212:14
#04318:14
#04414:14
#10118:14
#10110:41
#10218:14
#10314:14
#10414:14
#1051a:14
#10612:14
#10718:14
#10814:14
#1091a:14
#11012:14
#11118:14
#0011a:14
#03212:14
#0311a:14
#0251a:14
#02510:41
#0451a:14
#04612:14
#04912:14
#0501a:14
#05318:2616
#05310:41
#05412:1616
#05518:16
#05512:0016
#06112:0016
#06118:26
#05818:1616
#05712:1616
#05918:0016
#05912:16
#06212:0016
#06218:16
#08312:2616
#0831f:21
#08418:1616
#08410:41
#08512:16
#08518:0016
#09118:0016
#09112:26
#08812:1616
#08718:1616
#08912:0016
#08918:16
#09218:0016
#09212:16
#09612:16
#09618:0016
#0691f:11
#06410:41
#0093a0:14
#0103a0:24
#011320:14
#012320:24
#037380:14
#038380:24
#039340:14
#040340:24
#0473a0:14
#0483a0:24
#051320:14
#052320:0024
#056380:1626
#060320:1626
#063380:1626
#064320:1600000000000026
#066380:1626
#067320:14
#068320:24
#069380:14
#0723a0:24
#073340:14
#076320:24
#077380:1434
#078380:3424
#079340:1434
#080340:3424
#081380:1434
#082380:24
#086320:1626
#090380:1626
#093320:1626
#094380:1600000000000026
#097320:1600000000000026
#098380:0016
#099380:26
#100320:1626
#112340:1400000000000024
