This file was generated by Ched 2.7.0.0.
#TITLE ""
#ARTIST ""
#DESIGNER ""
#DIFFICULTY 0
#PLAYLEVEL
#SONGID ""
#WAVE ""
#WAVEOFFSET 0
#JACKET ""
#REQUEST "ticks_per_beat 480"
#00002: 4
#BPM01: 194
#00008: 01
#TIL00: ""
#VOLUME: ""
#HISPEED 00
#MEASUREHS 00
#0691f:11
#06918:26
#0411b:0000000000000013
#04112:13
#04110:41
#04312:0000000013000013
#04315:13130013
#04318:0013001300130000
#0431b:1300000013000013
#04212:0013000013000013
#04215:00130013
#04218:0000001300130000
#0421b:0013
#0821a:14
#08212:14
#04716:0013000000000000
#04717:0000000000130000
#04712:0000530023000013
#0471b:2300001300005300
#04719:00000000000000000000005300000000
#04714:00000053000000000000000000000000
#04816:0013000000000000
#04817:0000000000130000
#04812:0000530023000013
#0481b:2300001300005300
#04819:00000000000000000000005300000000
#04814:00000053000000000000000000000000
#05718:00130000000000001300000000001300
#05715:00130013
#0561b:1300001300000013
#05615:0013001300000023
#05618:00130000
#05612:13
#04915:00130013
#04912:2313
#0491b:2300000013000013
#04918:0000001300000000
#04518:00130013
#0451b:2313
#04512:2300000013000013
#04515:0000001300000000
#03915:1300000013000013
#03918:0000130000130000
#0391b:1300000000001313
#03912:0000001300000000
#03712:1300000013001313
#03718:1300001300001313
#03715:00130000
#0371b:0013
#03812:0013000000130000
#0381b:0013
#03815:00000013
#03818:0000000000000013
#09012:13
#09017:13
#0901b:0000130013000013
#09018:0000001300000000
#09016:0000000013000023
#0891b:0013000013000000
#08917:00000000001300000000000000000000
#08912:00000013
#08915:0000000000000013
#08916:0013
#11012:0013000013000000
#11015:0000130000000013
#11018:0000001300001300
#1101b:0000000013130000
#1121b:1313000000130000
#11212:1300000000130000
#07818:12121212
#07716:12121212
#08018:13131313
#07915:13131313
#08114:14140000
#08118:00001414
#10812:0013
#1081b:0000000013130000
#10818:00000013
#10815:0000000000000013
#04412:0013
#0441b:0000000013130000
#04415:0000000000000013
#04418:00000013
#03212:0000000013130000
#0321b:0013
#03215:00000013
#03218:0000000000000013
#03612:0013
#0361b:0000000013130000
#03618:00000013
#03615:0000000000000013
#0041b:0013
#00412:0013000013000000
#00418:0000000000130013
#00415:00000013
#0081b:0013000013000000
#00812:0013
#00815:0000000000130013
#00818:00000013
#0161b:0013000013000000
#01612:0013
#01615:0000000000000013
#01618:00000000000000000000001300000000
#00715:0000130000000013
#00712:1300000000130000
#00718:0013000000001300
#0071b:1313
#00318:0000130000000013
#00315:0013000000001300
#0031b:1300000000130000
#00312:1313
#11118:0013001300001300
#11115:0000130000130013
#11112:1313
#1111b:1313
#10916:0000130000000013
#1091b:0013
#10912:23
#1071b:1300130013000013
#10712:1300000000000013
#10714:0013000000000000
#10716:00130000
#10715:00000013
#10718:0000000000130000
#08816:0000000000130000
#0881b:1300000000130000
#08817:0000001300000013
#08812:1300001300000013
#08815:00130000
#08818:0013000000000000
#0581b:1300001300000013
#05815:0013001300000013
#05812:1300000000130000
#05818:0000130000130000
#06018:0000000013000013
#0601b:13
#06012:0000000013000023
#06015:13
#05918:0013
#05912:0013
#05015:0013000013000013
#0501b:0000001300131300
#05012:00000000000000000000001300000000
#04618:0013000000130000
#04612:0000001300000013
#04615:00000013
#0461b:0013
#03515:0000130000130013
#0351b:1300000000000013
#03518:0013000013001300
#03512:13
#03118:0000130000130013
#03115:0013000013001300
#0311b:13
#03112:1300000000000013
#10612:00001313
#10615:0000001300000000
#10618:00130000
#1061b:0013000000000000
#10619:0000000000000013
#10517:0000130000000013
#10512:0013
#1051b:23
#10316:1313
#1031b:1300000013000013
#10312:00000000130000000000001300000000
#10317:00130000
#1041b:0000000013000013
#10412:00001300130000000000001300000000
#10417:00001300130000000000001300000000
#10416:0013
#10212:0000000013000013
#1021b:00001300130000000000001300000000
#10216:00001300130000000000001300000000
#10217:0013
#10112:1300000013000013
#1011b:00000000130000000000001300000000
#10117:2313
#10116:00130000
#10110:41
#06612:13130013
#06617:00000013
#06616:0013
#0661b:0000001313000000
#09612:1300130000001313
#09617:0000000000001313
#09616:0013
#0961b:0000001313000000
#0951b:00000013
#09515:00130000
#09518:0013
#09917:00121200
#09914:0000000000000013
#09918:0000000000000015
#0991a:00000023
#09913:00000023
#09815:00000013
#09812:0000001300000013
#09818:00000013
#0981b:0000001300000013
#0971b:0013000000000000
#09716:0013000000000000
#09718:0000000000002616
#09712:00000000001300000000000016002600
#09717:00000000001300000000000000000000
#09416:000000000000130000130000000000000013000000000000
#0941b:130000000000130000130000000000000013000000000000
#09414:0013000000130000
#09419:0000000000130000
#09417:000000000000000000000000001300000000000000230000
#09412:000000000000000000000000001300000000000000230000
#08712:00130000000000001300000000000000
#08715:0000000000130013
#08718:00000013
#0871b:00130000
#08616:0000000013000013
#0861b:0000000013000023
#08612:1300131300000000
#08617:0000131300000000
#08619:0013000000000000
#0931b:0013000000000013
#09312:0000000013130000
#09315:0000001300000000
#09318:00130000
#09217:0000000000130000
#09216:0000001300000013
#09218:00130000
#09215:0013000000000000
#0921b:1300001300000000
#09212:13
#09116:00130000
#0911b:0013
#09117:00130000000000000000000000001300
#09112:00000013
#08512:0013000000000013
#0851b:0000000013130000
#08518:0000001300000000
#08515:00130000
#08416:0000000000130000
#08417:0000001300000013
#08415:00130000
#08418:0013000000000000
#08412:1300001300000000
#0841b:13
#08410:41
#08317:00130000
#08312:0013
#08316:1300000000000013
#0831b:00000013
#0831f:21
#0831a:24
#0331b:1313
#03312:0000000000000013
#03318:00130000
#0151b:1300130000130000
#01518:0000001300000000
#01512:1300000000130013
#01515:0013
#0141b:0013130000000000
#01415:0013130000130013
#01418:00000013
#01412:0013
#01318:0000000000000013
#01312:13
#01118:0000001300001300
#01115:0000130000130013
#0111b:1300000013000013
#01112:1313
#00912:1300000013000013
#00918:0000130000000013
#0091b:2313
#00915:0000001300001300
#0051b:0000000000000013
#00512:13
#00515:00130000
#00112:0000000000000013
#00118:00130000
#0011b:23
#00615:0000130000000013
#00618:0000001300001300
#0061b:0013
#00612:0013000000000000
#06815:0013000000000013
#06812:00130000
#0681b:23232323
#06717:0000000000000013
#06719:0000000000130000
#0671b:0000001300000000
#06712:23232323
#0641b:1300000000130000
#06415:0000130000130000
#06412:1300001300000023
#06418:0013001300000023
#06410:41
#0611b:00130000000000000000000000000000
#06112:00130013
#06118:0000000013000013
#06218:0000001300000013
#06212:0000001300000013
#0621b:0013000000130000
#06215:1300130000130000
#06318:00130013
#06315:0013000000130013
#0631b:0013
#06312:0000001300000000
#06518:0013
#06515:00130000
#0651b:00000013
#05415:0000001300000013
#0541b:0000001300000013
#05412:0013000000130000
#05418:1300130000130000
#05515:00130013
#05518:0013000000130013
#05512:0013
#0551b:0000001300000000
#0341b:0013000000130000
#03415:0000001300000013
#03418:00130013
#03412:0013
#05315:0000000013000013
#0531b:23130013
#05312:13
#05310:41
#05218:00000000000000130000000000000000
#05212:0000001323000000
#05215:00000013000000000000000000000000
#0521b:0013230000000000
#05112:0013130000000013
#05118:1300000013130000
#0511b:0023230000000023
#05115:0000000023230000
#04015:0000000000000013
#04018:00000013
#0401b:0013000000130000
#04012:0013
#03018:0000001300000013
#03015:00130013
#03012:0013000013000000
#02812:00000000000000001300001300000000
#0281b:0013130000000013
#02817:0013
#02816:0013130000000000
#0261b:00000000000000001300001300000000
#02612:0013130000000013
#02616:0013
#02617:0013130000000000
#0291b:0000000000000013
#02912:2313
#02915:00130000
#02712:1313
#02717:1300000013000013
#02716:00000000130000000000001300000000
#0271b:00130000
#02516:1300000013000013
#02517:00000000130000000000001300000000
#0251b:2313
#02512:00130000
#02510:41
#01215:0000000000000013
#01218:00000013
#0121b:0000000000130000
#01018:0000000000000013
#01015:00000013
#01012:0000000000130000
#00218:0000130000000013
#00215:0000001300001300
#00212:0013
#0021b:0013000000000000
#02112:26
#01718:26
#01655:0013000000000000
#00852:0013000000000000
#0045b:0013000000000000
#11258:0000000000000013
#11255:0000000000000013
#11252:0000000000530000
#1125b:0000000000630000
#1095b:0000000000000013
#10952:13
#10858:0013000000000000
#10855:0013000000000000
#04458:0013000000000000
#04455:0013000000000000
#03652:0013000000000000
#03658:0013000000000000
#0325b:0013000000000000
#03255:0013000000000000
#10552:0000000000000013
#1055b:13
#09955:13
#09958:1300000000000055
#09953:00000053
#09954:0000000000000053
#0925b:0000001300000013
#09252:0000000000130000
#09257:0000000000530000
#09256:0000006300000000
#08652:0000005300330000
#08657:0000005300330000
#0865b:0000000023000013
#08656:0000000023000063
#08452:0000001300000013
#0845b:0000000000130000
#08456:0000000000630000
#08457:0000005300000000
#01258:0013000000000000
#01252:0013000000000000
#01055:0013000000000000
#0105b:0013000000000000
#05658:0000000000130000
#05652:0000000000130000
#05655:0000006300000013
#0565b:0000006300000063
#04052:0013000000000000
#0405b:0063000000000000
#0385b:0013000000000000
#03852:0053000000000000
#02152:16
#10157:13
#1015b:00000000000000000000005300000000
#10152:0063
#09457:000000000000000000000000002300000000000000330000
#09452:000000000000000000000000002300000000000000330000
#09456:000000000000000000630000000000000023000000000000
#0945b:000000000000000000630000000000000023000000000000
#09454:0000000000530000
#09459:0000000000530000
#09056:0000000063000013
#09052:53
#09057:53
#0905b:0000630063000063
#09058:0000002300000000
#0835a:14
#08357:00530000
#08352:0053
#08356:63
#01758:16
#06458:0000005300000013
#06452:0000005300000013
#0645b:0000000000630000
#06455:0000000000630000
#06052:0000000053000013
#06058:0000000053000053
#0605b:63
#06055:63
#06958:16
#09752:00000000002300000000000000005600
#0975b:0063000000000000
#09756:0063000000000000
#09758:0000000000000056
#09757:00000000002300000000000000000000
#0535b:13630000
#05355:0063
#05352:53
#0495b:1300000013000063
#04952:1313
#0455b:1313
#04552:1300000013000053
#02952:13
#0295b:0000000000000013
#0255b:13
#02557:00000000000000000000006300000000
#02556:0053
#0095b:1363
#00952:5300000000000053
#00958:0000000000000053
#0015b:13
#0415b:0000000000000013
#05758:00230000000000005300000000000000
#05755:00630000
#03752:0033
#03758:5300000000000053
#0375b:0043
#0895b:0063000063000000
#08957:00000000002300000000000000000000
#08952:00000053
#08955:0000000000000023
#08956:0063
#00755:0000000000000063
#00358:0000000000000053
#1075b:0000000000000063
#10752:0000000000000053
#0585b:0000000000000063
#05855:0000000000000063
#05958:0053
#05952:0053
#05055:0063000000000000
#04658:0053000000000000
#0435b:0000000000000063
#04352:0000000000000053
#03555:0000000000000063
#0355b:0000000000000063
#03158:0000000000000053
#03152:0000000000000053
#10452:00000000000000000000005300000000
#10456:0063
#10352:00000000000000000000006300000000
#1035b:0053
#1025b:00000000000000000000006300000000
#10257:0053
#06657:00000013
#06656:0013
#0955b:00000063
#09855:00000063
#09852:0000005300000023
#09858:00000053
#0985b:0000006300000023
#08752:00230000000000000000000000000000
#0875b:00630000
#08852:0000000000000053
#08857:0000000000000053
#09156:00630000
#0915b:0063
#09157:00230000000000000000000000000000
#03352:0000000000000013
#0155b:0000000000630000
#01552:5300000000000053
#0145b:00630000
#0115b:6300000000000063
#01155:0000000000000063
#0615b:00230000000000000000000000000000
#06152:00530000
#06158:0053
#06258:0000001300000013
#06255:0000000000130000
#05455:0000001300000013
#05458:0000000000130000
#09652:0000000000000053
#0655b:00000063
#03955:6300000000000053
#02852:00000000000000000000006300000000
#02857:0063
#0265b:00000000000000000000005300000000
#02656:0053
#02756:00000000000000000000005300000000
#02757:0063
#001320:13230000
#001350:00000000000000001300002300000000
#001381:00000000000000000000001300002300
#0023b1:00001323
#003381:0000000000000013
#0043b1:0023000000000000
#0053b1:13230000
#005381:00000000000000001300002300000000
#005350:00000000000000000000001300002300
#006320:00001323
#007350:0000000000000013
#008320:0023000000000000
#009320:13
#009350:00230000
#0093b0:0013
#009380:00000023
#009320:0000000000000013
#010350:0023000000000000
#009381:0000000000000013
#0103b1:0023000000000000
#0113b1:13
#011381:00230000
#0113b1:0000000000000013
#012381:0023000000000000
#011350:0000000000000013
#012320:0023000000000000
#013380:13230000
#013351:00132300
#0133b0:00000000000000001300002300000000
#013321:00000000000000000000001300002300
#0143b1:00130000
#014381:0023
#015321:13
#015351:00230000
#0153b1:0000000000130000
#015381:0000000000000023
#015320:0000000000000013
#016350:0023000000000000
#025360:0013
#025320:00000000000000000000002300000000
#025371:00000000000000000000001300000000
#0253b1:0000000000000023
#026361:0013
#026321:00000000000000000000002300000000
#0263b0:00000000000000000000001300000000
#026370:0000000000000023
#027370:0013
#0273b0:00000000000000000000002300000000
#027361:00000000000000000000001300000000
#027321:0000000000000023
#028371:0013
#0283b1:00000000000000000000002300000000
#028320:00000000000000000000001300000000
#028360:0000000000000023
#0293b0:13
#029380:00230000
#029380:0013
#0293b0:00000000000000000000002300000000
#029321:00000000000000000000001300000000
#029351:0000000000000023
#0303b1:0013
#030381:00000023
#031381:0000000000000013
#0323b1:0023000000000000
#031320:0000000000000013
#032350:0023000000000000
#033320:13
#033350:00230000
#033350:0013
#033320:00000000000000000000002300000000
#0333b1:00000000000000000000001300000000
#033381:0000000000000023
#035351:0000000000000013
#036321:0023000000000000
#0353b0:0000000000000013
#036380:0023000000000000
#037380:13
#0373b0:00230000
#037380:0000000000000013
#0383b0:0023000000000000
#038321:0013000000000000
#038361:0023
#039351:13
#039321:00230000
#039351:0000000000000013
#040321:0023000000000000
#0403b0:0013000000000000
#040370:0023
#041380:13
#0413b0:00230000
#041351:00130000
#041321:0023
#0413b0:0013
#041380:00000000000000000000002300000000
#041321:00000000000000000000001300000000
#041351:0000000000000023
#0433b1:0000000000000013
#044381:0023000000000000
#043320:0000000000000013
#044350:0023000000000000
#045320:0000000000000013
#046350:0023000000000000
#046381:0013000000000000
#0463b1:0000002300000000
#0493b1:0000000000000013
#050381:0023000000000000
#050350:0013000000000000
#050320:0000002300000000
#053320:13
#053350:00230000
#0533b1:00130000
#053381:0023
#053350:0013
#053320:00000023
#0563b0:0000001300000000
#056380:0000000000230000
#056351:0000001300000000
#056321:0000000000230000
#0563b1:0000000000000013
#057381:00530000000000000000000000000000
#0573b1:00230000
#057350:00130000
#057320:0023
#057381:0013
#0573b1:00000023
#0583b1:0000000000000013
#059381:0023000000000000
#058350:0000000000000013
#059320:0033000033000000
#059350:00000023
#059381:0013
#0593b1:00000033
#0603b1:33
#060381:00230000
#060350:13000023
#060320:00333300
#060381:0013
#0603b1:00000023
#060381:0000000000000013
#0613b1:00530000000000000000000000000000
#061381:00230000
#061320:00130000
#061350:0023
#061381:0013
#0613b1:00000023
#064321:0000001300000023
#064351:0000000000330000
#064380:0000001300000023
#0643b0:0000000000330000
#0653b0:00000013
#066370:23
#0673b0:13230000
#068320:0000001300002300
#069320:12
#070360:52
#071320:52
#072360:52
#073320:22
#0733c1:12
#074381:52
#0753c1:52
#076381:52
#0773c1:22
#083361:13
#083321:00230000
#083370:00130000
#0833b0:0023
#083321:0013
#083361:00000023
#084371:0000001300000000
#0843b1:0000000000230000
#084360:0000000000130000
#084320:0000000000000023
#085320:00001323
#085360:0000000000330000
#0853b1:00000013
#085371:0000000000000033
#0863b1:23
#086321:0000001300230000
#086361:0053
#086370:0000001300230000
#0863b0:0053
#086360:0000000000000013
#087320:00530000000000000000000000000000
#087360:00230000
#0873b1:00130000
#087371:0023
#088371:0000000000000013
#0893b1:0033000033000000
#089371:00000000005300000000000023000000
#088320:0000000000000013
#089360:0023000000000000
#089360:0013
#089320:00000033
#089350:0000000000000053
#090320:33
#090360:00230000
#090371:13000023
#0903b1:00333300
#090381:0000005300000000
#090360:0013
#090320:00000023
#0903b0:0000000000000013
#091370:00530000000000000000000000000000
#0913b0:00230000
#091361:00130000
#091321:0023
#0913b0:0013
#091370:00000023
#092360:0000001300000000
#092320:0000000000230000
#092371:0000000000130000
#0923b1:0000000000000023
#0933b1:00001323
#093371:0000000000330000
#093320:00000013
#093360:0000000000000033
#094320:23
#0943b0:000000000000000000130000000000000053000000000000
#094370:000000000000000000000000005300000000000000230000
#094390:0000000000330000
#094361:000000000000000000130000000000000053000000000000
#094321:000000000000000000000000005300000000000000230000
#094341:0000000000330000
#0953b1:00000013
#096371:23
#096321:0000000000000013
#097361:0033000023000000
#097321:00000000005300000000000000000000
#0973b0:0013000023000000
#097370:00000000005300000000000000000000
#097320:0000000000000016
#098320:00220000
#097381:0000000000000016
#0983c1:00220000
#098321:0000001300000053
#098351:00000033
#099351:23
#0983b0:0000001300000053
#098380:00000033
#099380:23
#099330:00000013
#099340:00000000000000000000000000000000000000000000000000000000000000000000000000000000000000000000000000000000000000000000000000000000000000000000000000000000000000000000000000000000000000000000000000000000000000000000000000000000000000000000000000000000000000000000000000000000000000000000000000000000000000000000000000000000000000000000000000000000000000000000000000000000000000000000000000000000000000000000000000000000000000000000000000000000000000000000000000000000000000000000000000000000000000000000000000000000000000000000000000000000000000000000000000000000000000000000000000000000000000000000000000000000000000000000000000000000000000000000000000000000000000000000000000000000000000000000000000000000000000000000000000000000000000000000000000000000000000000000000000000000000000000000000000000000000000000000000000000000000000000000000000000000000000000000000000000000000000000000000000000000000000000000000000000000000000000000000000000000000000000000000000000000000000000000000000000000000000000000000000000000000000000000000000000000000000000000000000000000000000000000000000000000000000000000000000000000000000005300000000000000000000000000000000000000000000000000000000000000000000000000000000000000000000000000000000550000000000000000000000000000000000000000000000000000
#099320:000000000000000000000000000000000000000000000057
#100320:27
#0993a1:000000000000000000000000000000000000000000000000000000000000000000000000000000000000000000000000000000000000000000000000000000000000000000000000000000000000000000000000000000000000000000000000000000000000000000000000000000000000000000000000000000000000000000000000000000000000000000000000000000000000000000000000000000000000000000000000000000000000000000000000000000000000000000000000000000000000000000000000000000000000000000000000000000000000000000000000000000000000000000000000000000000000000000000000000000000000000000000000000000000000000000000000000000000000000000000000000000000000000000000000000000000000000000000000000000000000000000000000000000000000000000000000000000000000000000000000000000000000000000000000000000000000000000000000000000000000000000000000000000000000000000000000000000000000000000000000000000000000000000000000000000000000000000000000000000000000000000000000000000000000000000000000000000000000000000000000000000000000000000000000000000000000000000000000000000000000000000000000000000000000000000000000000000000000000000000000000000000000000000000000000000000000000000000000000000000000000000000000000000000000000000000000000000000000000000000000000000000000000000000000000000000000000000000000000000000000000000000000000000000000000000000000000000000000000000000000000000000000000000000000000000000000000000000000000000000000000000000000000000000000000000000000000000000000000000000000000000000000000000000000000000000000000000000000000000000000000000000000000000000000000000000000000000000000000000000000000000000000000000000000000000000000000000000000000000000000000000000000000000000000000000000000000000000000000000000000000000000000000000000000000000000000000000000000000000000000000000000000000000000000000000000000000000000000000000000000000000000000000000000000000000000000000000000000000000000000000000000000000000000000000000000000000000000000000000000000000000000000000000000000000000000000000000000000000000000000000000000000000000000000000000000000000000000000000000000000000000000000000000000000000000000000000000000000000000000000000000000000000000000000000000000000000000000000000000000000000000000000000000000000000000000000000000000000000000000000000000000000000000000000000000000000000000000000000000000000000000000000000000000000000000000000000000000000000000000000000000000000000000000000000000000000000000000000000000000000000000000000000000000000000000000000000000000000000000000000000000000000000000000000000000000000000000000000000000000000000000000000000000000000000000000000000000000000000000000000000000000000000000000000000000000000000000000000000000000000000000000000000000000000000000000000000000000000000000000000000000000000000000000000000000000000000000000000000000000000000000000000000000000000000000000000000000000000000000000000000000000000000000000000000000000000000000000000000000000000000000000000000000000000130000000000000000000000000000000000000000000000000000000000000000000000000000000000000000000000000000000000000000000000000000000000000000000000000000000000000000000000000000000000000000000000000000000000000000000000000000000000000000000000000000000000000000000000000000000000000000000000000000000000000000000000000000000000000000000000000000000000000000000000000000000000000000000000000000000000000000000000000000000000000000000000000000000000000000000000000000000000000000000053000000000000000000000000000000000000000000000000000000000000000000000000000000000000000000000000000000000000000000000000000000000000000000000000000000000000000000000000000000000000000000000000000000000000000000000000000000000000000000000000000000000000000000000000000000000000000000000000000000000000000000000000000000000000000000000000000000000000000000000000000000000000000000000000000000000000000000000000000000000000000000000000000000000000000000000000000000000000000000000000
#099381:0000000000000055
#1003b1:23
#101321:0013
#101361:00000000000000000000002300000000
#1013b0:00000000000000000000001300000000
#101370:0000000000000023
#102370:0000000013000023
#1023b0:00000000000000000000003300000000
#1033b0:0013
#103370:00000000000000000000002300000000
#103321:00000000000000000000001300000000
#103361:0000000000000023
#104361:0000000013000023
#104321:00000000000000000000003300000000
#105361:13
#105321:00230000
#105371:0013
#1053b1:00000000000000000000002300000000
#105360:00000000000000000000001300000000
#105320:0000000000000023
#1063b0:0013
#106370:00000023
#1073b0:0000000000000013
#108380:0023000000000000
#107321:0000000000000013
#108351:0023000000000000
#109371:13
#1093b1:00230000
#109361:0013
#109321:00000000000000000000002300000000
#109370:00000000000000000000001300000000
#1093b0:0000000000000023
#112320:0013003300330000
#112350:0000000000005323
#1123b1:0000001300330000
#112381:0000000000005323
#047960:0013000000000000
#047920:00230000
#047970:0000000000130000
#0479b0:00000023
#048960:0013000000000000
#048920:00230000
#048970:0000000000130000
#0489b0:00000023
