This file was generated by Ched 2.7.0.0.
#TITLE ""
#ARTIST ""
#DESIGNER ""
#DIFFICULTY 0
#PLAYLEVEL
#SONGID ""
#WAVE ""
#WAVEOFFSET 0
#JACKET ""
#REQUEST "ticks_per_beat 480"
#00002: 4
#BPM01: 194
#00008: 01
#TIL00: ""
#VOLUME: ""
#HISPEED 00
#MEASUREHS 00
#00114:0014
#0011a:14
#0021a:14
#00214:0014
#00318:14
#00312:0014
#01318:1414
#01414:1414
#01518:14
#01514:0014
#02514:00140014
#0251a:2414
#02510:41
#02618:1414
#02612:00140014
#04216:0014
#04212:14
#0431a:14
#04316:0014
#0491a:0014
#04912:24
#05012:14
#0501a:0014
#05314:00140014
#0531a:2414
#05310:41
#05418:1414
#05412:00140014
#0551a:14
#05516:00343434
#05616:14
#0561a:0000343400340024
#1051a:2414
#10514:00140000
#10612:1414
#10618:00140000
#00418:14
#00518:0014
#00512:14
#00612:14
#00618:0014
#00714:14
#0071a:0014
#00814:14
#0091a:14
#00912:0014
#01018:14
#01112:14
#0111a:0014
#01214:14
#01618:14
#02818:1414
#02812:00140014
#0271a:1414
#02714:00140014
#04116:0014
#0411a:14
#04110:41
#04412:14
#03318:0014
#03312:14
#03414:14
#0341a:0014
#03514:14
#03518:0014
#03612:14
#02914:0014
#0291a:24
#03018:14
#03012:0014
#03118:14
#03114:0014
#0321a:14
#04512:0014
#0451a:24
#0461a:14
#04612:0014
#04718:1414
#04714:00140014
#04818:1414
#04814:00140000
#05714:00140014
#05718:0014
#0581a:1414
#05812:00140014
#06118:00140014
#06114:0014
#06212:1414
#0621a:00140014
#06312:14
#06316:00343434
#06416:14
#06412:0000343400340024
#06410:41
#0661a:14
#06614:0014
#06618:00000014
#06612:14
#06712:14
#06716:00343434
#07718:14141400
#07814:14141400
#0791a:14141400
#08012:14141400
#08118:1414
#08114:00140014
#08218:14
#08318:00140014
#08312:2414
#0831f:21
#08414:1414
#0841a:00140014
#08410:41
#08512:14
#08516:00343434
#08616:14
#08612:0000343400340024
#08718:00140014
#08714:0014
#08812:1414
#0881a:00140014
#09114:00140014
#09118:0014
#0921a:1414
#09212:00140014
#0931a:14
#09316:00343434
#09416:14
#0941a:0000343400340024
#09514:00140014
#09518:0014
#0961a:14
#09612:0014
#1001a:14
#10012:14
#10114:00140014
#10118:2414
#10110:41
#1021a:1414
#10212:00140014
#10418:14
#10414:00140000
#1041a:0014
#10412:00000014
#10318:14
#10314:00140000
#1031a:0014
#10312:00000014
#10718:1414
#10714:00140014
#10818:14
#10912:2414
#10918:00140000
#1101a:1414
#11014:00140000
#11114:1414
#11118:00140014
#0691f:11
#01712:24
#0211a:24
#05212:0024
#0521a:0024
#06014:0000000000000024
#09018:0000000000000024
#06816:34343400
#04952:14
#0535a:14
#05656:54
#0565a:0000000000000014
#0555a:54
#01752:14
#0215a:14
#0455a:14
#06054:0000000000000014
#06352:64
#06456:64
#06452:0000000000000014
#06752:64
#08552:64
#08656:64
#08652:0000000000000014
#0935a:54
#09456:54
#0945a:0000000000000014
#08352:14
#09058:0000000000000014
#0995a:14
#09952:14
#11254:0000000000000014
#0373a0:14
#037380:0034
#0383a0:24
#039320:14
#039340:0034
#040320:24
#051340:1400000000000024
#0553a0:14
#055360:00343434
#056360:34
#0563a0:0000343400340024
#0593a0:14
#059380:0024
#060320:14
#060340:0000000034000024
#063320:14
#063360:00343434
#064360:34
#064320:0000343400340024
#067320:14
#067360:00343434
#068360:34343424
#0693a0:14
#070370:54
#0713a0:54
#072370:24
#073320:14
#074350:54
#075320:54
#076350:24
#085320:14
#085360:00343434
#086360:34
#086320:0000343400340024
#089320:14
#089340:0024
#0903a0:14
#090380:0000000034000024
#0933a0:14
#093360:00343434
#094360:34
#0943a0:0000343400340024
#0973a0:1400000000003434
#098380:0000003400000000
#0983a0:00000034
#0993a0:24
#097321:1400000000003434
#098341:0000003400000000
#098321:00000034
#099321:24
#112341:1400000000000024
