This file was generated by Ched 2.7.0.0.
#TITLE ""
#ARTIST ""
#DESIGNER ""
#DIFFICULTY 0
#PLAYLEVEL
#SONGID ""
#WAVE ""
#WAVEOFFSET 0
#JACKET ""
#REQUEST "ticks_per_beat 480"
#00002: 4
#BPM01: 204
#00008: 01
#TIL00: "0'0:1"
#VOLUME: ""
#HISPEED 00
#MEASUREHS 00
#00012:14
#0021a:14
#00414:14
#00618:14
#00812:14
#01012:14
#01218:14
#01314:14
#01612:14
#01610:41
#01718:14
#01814:14
#0191a:14
#02012:14
#02118:14
#02214:14
#0231a:14
#02412:14
#02512:14
#02618:14
#02718:14
#02814:14
#02914:14
#03114:0000000000000014
#03110:0000000000000041
#03218:0000000000000014
#03312:0000000000000014
#0341a:0000000000000014
#03514:0000000000000014
#03614:0000000000000014
#03718:0000000000000014
#03818:0000000000000014
#04012:0016
#04118:16
#04112:0016
#04218:16
#04212:0016
#04318:16
#04312:0000000000000026
#04418:0016
#04512:16
#04518:0016
#04612:16
#04618:0016
#04712:16
#04718:0000000000000026
#04918:1616
#05012:1616
#05118:16
#05112:0000000000000026
#04812:0016
#05312:1616
#05218:0016
#07418:0000000000000014
#06312:0000000000000014
#0651a:0000000000000014
#06714:0000000000000014
#06918:0000000000000014
#07112:0000000000000014
#0721a:0000000000000014
#07314:0000000000000014
#07512:0000000000000014
#0761a:0000000000000014
#07818:0016
#07912:16
#08118:0016
#08212:16
#08218:0016
#08312:16
#08318:0000000000000026
#08412:0016
#08518:16
#08512:0016
#08812:0016
#08918:1616
#09012:1616
#09118:16
#09112:0000000000000016
#09218:0016
#09312:16
#09318:0016
#0961a:14
#09714:14
#09818:14
#09912:14
#1001a:14
#10114:14
#10218:14
#10312:14
#1041a:14
#10410:41
#1051a:14
#10614:14
#10714:14
#10818:14
#10918:14
#0621f:0000000000000011
#03918:0000000000000026
#03910:0000000000000041
#07712:0000000000000026
#0771f:0000000000000021
#08012:0000000000000026
#08010:00410000
#08712:0000000000000026
#05510:0000000000000041
#0143a0:14
#0153a0:24
#0303a0:14
#0313a0:24
#054380:16
#055380:26
#055320:0000000000000014
#057340:0000000000000024
#0593a0:0000000000000014
#061380:0000000000000024
#079380:0000000016000036
#080380:00260000
#086380:1600000036000036
#087380:0026
#094320:16
#095320:26
#110320:1400003400000034
#111320:0024
