This file was generated by Ched 2.7.0.0.
#TITLE ""
#ARTIST ""
#DESIGNER ""
#DIFFICULTY 0
#PLAYLEVEL
#SONGID ""
#WAVE ""
#WAVEOFFSET 0
#JACKET ""
#REQUEST "ticks_per_beat 480"
#00002: 4
#BPM01: 204
#00008: 01
#TIL00: "0'0:1"
#VOLUME: ""
#HISPEED 00
#MEASUREHS 00
#0141a:00140000
#01412:24
#01518:0014
#01612:14
#01618:0014
#01610:41
#01714:14
#0171a:0014
#01812:1414
#01918:1414
#02014:14
#0201a:0014
#02112:14
#02118:0014
#02214:1414
#0231a:1414
#02412:14
#02418:0014
#02514:14
#0251a:0014
#02614:14
#02618:0014
#0281a:14
#02814:0014
#02918:14
#02912:0014
#03218:0014
#03314:14
#0331a:0014
#03412:14
#03418:0014
#03514:14
#03612:00140014
#03618:0014
#0371a:1400000000000014
#03714:00140000
#0401a:00140014
#04014:0014
#04112:1414
#04118:00140014
#04214:1414
#0421a:00140014
#04312:14
#04318:00140000
#0441a:00140000
#04414:0014
#04418:00000014
#04512:14
#0451a:00140000
#04514:0000000000000014
#0471a:0000140000000024
#04812:00140014
#04818:0014
#0491a:1414
#04914:00140014
#05018:1414
#05012:00140014
#0511a:14
#05114:00140000
#05212:00140000
#05218:0014
#05214:00000014
#0531a:14
#05312:00140000
#05318:0014
#05314:00000014
#05512:0000000000000014
#05510:0000000000000041
#05714:0000000000000014
#0561a:0000000000000014
#05818:0000000000000014
#06014:0014
#06118:14
#07114:0014
#07118:0000000000000014
#07214:0000000000000014
#0731a:0000000000000014
#07412:0000000000000014
#07618:0000000000000014
#07814:00140014
#07818:0014
#0791a:1424
#07912:00140000
#08118:00140014
#08112:0014
#08214:1414
#0821a:00140014
#08312:14
#08318:00140000
#0841a:00140000
#08414:0014
#08418:00000014
#08512:14
#0851a:00140000
#08514:0000000000000014
#0871a:0000140000000024
#08812:00140014
#08818:0014
#0891a:1414
#08914:00140014
#09018:1414
#09012:00140014
#0911a:14
#09114:00140000
#09212:00140000
#09218:0014
#09214:00000014
#0931a:14
#09312:00140000
#09318:0014
#09314:00000014
#09612:1414
#09718:1414
#09814:1414
#0991a:1414
#10012:1414
#10118:14
#10114:0014
#1021a:1414
#10314:14
#10318:0014
#10412:14
#1041a:0014
#10410:41
#10514:14
#10518:0014
#10612:14
#1061a:0014
#1081a:14
#10812:0014
#10918:14
#10914:0014
#0621f:0000000000000011
#03912:0000000000000024
#03910:0000000000000041
#0541a:24
#0771a:0000000000000024
#0771f:0000000000000021
#0941a:24
#03110:0000000000000041
#08010:00410000
#01454:0000000000000014
#03058:0000000000000014
#03152:0000000000000014
#0355a:0000000000000014
#03858:0000000000000014
#0375a:0000000000000024
#03952:0000000000000014
#04352:0000000000000014
#04652:0000000000000014
#04554:0000000000000064
#0475a:0000000000000014
#0515a:0000000000000014
#0545a:0000000000000014
#05654:0014
#0565a:0000000000000064
#05552:0000000000000064
#05852:0014
#05858:0000000000000054
#05754:0000000000000064
#05758:0014
#0595a:0000000000000014
#06152:0000000000000014
#0625a:0000000000000014
#07658:0000000000000064
#0775a:0000000000000014
#0805a:00140000
#08052:0000000000000014
#08554:0000000000000064
#0875a:0000000000000014
#08352:0000000000000014
#08652:0000000000000014
#0915a:0000000000000014
#0945a:0000000000000014
#11158:0014
#0003a0:14
#0013a0:24
#002340:14
#003340:24
#004380:14
#005380:24
#006320:14
#007320:24
#0083a0:14
#009380:24
#010340:14
#011320:24
#012380:14
#0133a0:24
#014340:0000000014000024
#027320:1424
#030380:1400003400000024
#031320:0000000014000024
#0353a0:0000000014000024
#0373a0:0000000014000034
#038380:0000000034000024
#039320:0000000014000024
#043320:0000000014000024
#045340:0000000014000034
#046320:0000000034000024
#0473a0:0000000014000024
#0513a0:0000000014000024
#0543a0:1434340034340024
#055320:0000000014000034
#056340:0024
#0563a0:0000000000000014
#057380:0024
#057340:0000000000000014
#058320:0024
#058380:0000000000000014
#0593a0:0000000034000024
#061320:0000000014000024
#0623a0:0000000014000024
#063340:0000000014000034
#064320:0000000000000034
#065340:0000000000000034
#066320:0000000000000024
#067380:0000000014000034
#0683a0:0000000000000034
#069380:0000000000000034
#0703a0:0000000000000024
#075380:0000000000000014
#076380:0000000000000034
#0773a0:0000000000000024
#0793a0:00000000000000001400003400003400
#0803a0:00240000
#080320:0000000014000024
#083320:0000000014000024
#085340:0000000014000034
#086320:0000000034000024
#0873a0:0000000014000024
#0913a0:0000000014000024
#0943a0:1434340034340024
#107340:1424
#1103a0:14
#110380:0000003400000034
#111380:0024
