This file was generated by Ched 2.7.0.0.
#TITLE ""
#ARTIST ""
#DESIGNER ""
#DIFFICULTY 0
#PLAYLEVEL
#SONGID ""
#WAVE ""
#WAVEOFFSET 0
#JACKET ""
#REQUEST "ticks_per_beat 480"
#00002: 4
#BPM01: 134
#BPM02: 201
#BPM03: 114
#BPM04: 115
#BPM05: 116
#BPM06: 117
#BPM07: 118
#BPM08: 119
#BPM09: 121
#BPM0A: 123
#BPM0B: 125
#BPM0C: 146
#BPM0D: 153
#BPM0E: 161
#BPM0F: 171
#BPM0G: 229
#BPM0H: 223
#BPM0I: 216
#BPM0J: 209
#BPM0K: 203
#BPM0L: 196
#BPM0M: 188
#BPM0N: 180
#BPM0O: 172
#BPM0P: 166
#BPM0Q: 160
#BPM0R: 190
#BPM0S: 140
#BPM0T: 132
#BPM0U: 129
#BPM0V: 135
#00008: 01
#03608: 0001
#02608: 02
#06408: 05040300
#06308: 09080706
#06208: 0T0U0B0A
#06108: 0D0C0S0V
#06008: 0G0R0F0E
#05908: 0K0J0I0H
#05808: 0O0N0M0L
#05708: 00000Q0P
#TIL00: ""
#VOLUME: ""
#HISPEED 00
#MEASUREHS 00
#0261f:11
#02612:0000140014000014
#02614:00000014
#02618:000014
#0261a:1414
#06212:00130000
#06217:00130000
#0621b:1300000000000000000000000000000000000000001300000000000000000000
#06216:13
#06214:000000000000000033000000000000000000000000140000
#06215:000000000033000000000000
#06218:000033000000000000530000
#06219:000000000000000033000000000000000000000000000000000000000000000000000000000000000000000000000000000000000000000000000000000000000000000000530000000000000000000000000000000000000000000000000000
#0621a:00000000000000000000005300000000
#06112:00000013
#06117:0013
#06115:000000000000000000000033
#06114:000000000033
#0611a:000033
#06119:000000000000003300000000
#06412:1616161600000000
#06414:001400001400001400000000000000000000000000000000
#06418:161400161400161400160000000000000000000000000000
#06314:000000000000140000140000001400001400001400001400
#06312:000000002600000016000000160000160000160000160000
#06318:000000002600140016140000161400161400161400161400
#0521b:1300000000130000
#05212:0023000000001300
#05215:0000000013000013
#05218:000000000000230000000013000000000000130000000000
#0411a:00001414
#04116:0000000000000014
#04118:000013000000130000000000000000240000000000000000
#04112:1300000028000024
#04114:00000024
#04212:140000140000000000001400
#0421a:2400001400000000
#04218:001400240000240000000000
#04214:0024002400000000
#04216:0000000000000024
#0201b:13000013
#02014:000000000000000000000000000000000000000000000014
#02012:000000000013000000000000000000000000130000000000
#02018:000000000000000000000013000000130000000000000000
#02015:1300001313000000
#01812:13130000
#01815:0013
#01818:00130013
#0181b:000000000000000000000013000000000000000000000000
#01817:53
#01718:0013001300000000
#01712:0013
#0171b:000000130053
#01715:00130000
#01717:000053
#0121a:12
#01214:5400000000120000
#01218:0000000012000012
#01216:0000001200000000
#0141c:0000001200000000
#01418:0000000000000012
#01416:00000012
#01414:0000000000120000
#01116:001400
#01113:000000000054
#01112:000054
#01114:0054
#01016:12001212
#01018:0000000000120012
#01014:0000001200000000
#05117:000000000013000000000000000000000000000000000000
#05116:001300000000000000000000
#05112:0000001300000000
#05115:000000000000000000000000000000000013000000000000
#05118:000000000000000000000013000000130000000000000000
#0511b:0000001300000000
#04716:000000000013000000000000000000000000000000000000
#0471b:0000001300000000
#04717:001300000000000000000000
#04718:000000000000000000000000000000000013000000000000
#04715:000000000000000000000013000000130000000000000000
#04712:0000001300000000
#04710:41
#0051b:00131300
#00518:2613000000000013
#00512:26130000
#00515:0000001300000000
#00510:41
#00612:13131300
#0061b:13130000
#00615:0013000000000013
#00618:0000001300000000
#0311a:00240014
#03112:00000014
#03115:001400000000
#03119:24
#03214:00000014
#0321a:0014
#03212:000000000014000000000000
#03218:000014
#04012:0000001300000000
#04015:0013000000001300
#04018:0000130000130000
#0401b:0000001300000000
#0391b:0000001300000013
#03912:2400001300000000
#03916:16
#03918:000000000000000000000013000000000000000000000000
#05716:00140000
#05714:18
#05618:0000000000130000
#05612:0000000000130000
#05615:130013000000000000130000000000000000130000000000
#0561b:130013000000000000130000000000000000130000000000
#0551b:000000000013
#05518:1300000000130000
#05512:1300000000000013
#05515:00000013
#05415:130000000013
#05412:0000000000130000
#05418:0000000000000013
#0541b:13000013
#05410:41
#05318:000000130000000000001300
#0531b:1300000023130000
#05315:0000130000000013
#05312:13002313
#05012:0000000000131300
#0501b:1300000000000013
#05017:00000013
#04912:00001313
#0491b:0013
#04918:13
#04915:0000001300000000
#0481b:0000000000000013
#04812:0000000000130000
#04815:000000130000000000000013000000000000000000000000
#04818:000000000013000000130000000000000000000000000000
#0461b:0000000000131300
#04612:1300000000000013
#04616:00000013
#0451b:00001313
#04512:1425160013000000
#04517:0015000000000000
#04518:00260000
#04516:24
#04418:0000000000000016
#0441a:0000140000140000
#04414:00000015
#04416:0014241400240000
#04412:0024002400000026
#04419:00000025
#04316:0000000000142414
#04312:0000002600001400
#0431a:0000000000240024
#04318:00260000
#03814:000014000000240000000000240000000000000000160000
#03812:2400001400142400
#0381a:1400140014000024
#03816:00000016
#03818:0024002400240000
#03810:0041
#03712:00001414
#03716:0000000028000014
#0371f:0021
#0371a:0000000000000024
#03718:00000024
#03714:0000000000240000
#03612:0013
#03615:00000013
#03618:140000000000000000000000000000000013000000000000
#03614:00140000
#0361a:00140000
#0361b:0013
#03512:0014
#03514:14
#03516:00140014
#03518:0014
#03416:0014
#03418:000000000000000000000014
#03412:25000014
#0341a:00240000
#03312:0014
#03318:00140000
#03314:001400000000
#0331a:000000000014000000240000
#03316:00000024
#03014:000000000000000000000014
#03016:14140000
#03012:000000000014000000000000
#03013:000014
#03017:0024
#03018:00000024
#02916:00000014
#0291a:0014
#02912:000000141400
#02816:00140000
#02812:14
#02716:0014000000001400
#0271a:0014
#02714:14
#02512:240013
#02518:000000000013
#0251b:0013
#02515:000000000000000000000013
#02417:0000000000130000
#02416:0013000000000000
#0241b:13
#02412:0024
#0241a:0000002400000024
#02312:13000000000000000016000013000000
#02318:00000016000000000000130000000000
#02317:00000000000000160000000000000000
#02313:00000000001600000000000000000000
#0231b:13
#02314:0022
#02319:0000002200000000
#02315:00220000
#0231a:0022000000000000
#02218:1400001300130000
#0221b:0013
#02212:0013000000000013
#02215:000000130000001300130000
#02214:24
#02118:240000000000000000240000000000000014000000000000
#02114:000000000000000014000000000000240000000000000000
#02112:0024000000002400
#0211a:0000240000000024
#02116:0024
#02110:41
#01917:0000231300000013
#01914:0013000023001300
#0191b:2300000000130000
#01919:0023000013002300
#01912:0000132300000023
#01916:1300000000230000
#0151a:0012
#01518:000000000000000000000000000000120000000000000012
#01516:00000012
#01514:0000000000000012
#0091b:00231300
#00912:000000000000130000000000230000000026000000000000
#00918:000000130000000000230000000000230000000026000000
#00915:002300000000002300000000
#00815:000000000013000000230000000000130000130000000000
#00818:130000000000000000000000000023000000000000000013
#0081b:000000000023000000130000000000000000230000000000
#00812:230000000000000000000000000000000000000000000023
#0071b:0013130000000000
#00712:1300001300000013
#00718:13
#00715:00130000
#06515:0000260000000026000000000000260000000000000000000000000000000000
#06518:26
#06512:0000000000000000002600000000000000000000000000000000000000000000
#01310:41
#06252:00530000
#06257:00530000
#0625b:6313
#06256:6313
#06254:0000000000000014
#06152:00000053
#06157:0053
#06452:5656565600000000
#06454:002400002400002400000000000000000000000000000000
#06458:662400662400662400660000000000000000000000000000
#06354:000000000000240000240000002400002400002400002400
#06352:000000005600000056000000560000560000560000560000
#06358:000000006600240066240000662400662400662400662400
#0525b:63
#05258:00130000
#05252:0053000000000000
#05255:00130000
#0205b:63
#01852:13530013
#01855:0063
#01858:00000013
#05157:000000000013000000000000000000000000000000000000
#05156:006300000000000000000000
#04756:000000000013000000000000000000000000000000000000
#04757:005300000000000000000000
#0315a:00000064
#03152:00000054
#04052:0000005300000000
#0395b:0000000000000063
#05756:00240000
#05754:68
#05752:0000001c00000000
#05655:000063000000000000630000000000000000130000000000
#0565b:000063000000000000630000000000000000130000000000
#05652:0013
#05658:0013
#05355:00630000
#05358:00530000
#05352:5313
#0535b:0013
#04952:00001353
#0495b:0063
#04957:00000013
#0455b:00001363
#04552:0053
#04556:00000013
#04158:00130000
#04152:0038
#04155:00130000
#03652:0053
#03655:00000063
#03456:0024
#0345a:00640000
#03452:55
#03454:00160000
#03457:15
#03352:0054
#0335a:00000064
#03356:00000014
#02956:00000054
#02952:00340000
#0295a:00440000
#03056:64
#02856:00640000
#02852:5414
#0285a:0014
#02756:0024000000005400
#0275a:0064
#02754:54340000
#02652:0000000000000024
#02654:00000054
#0265a:64
#02552:000053
#0255b:0063
#02457:0000000000130000
#02456:0013000000000000
#02352:00000000000000000066000053000000
#02357:00000000000000560000000000000000
#02353:00000000006600000000000000000000
#02358:00000056000000000000000000000000
#02354:0022
#02359:0000002200000000
#02355:00220000
#0235a:0022000000000000
#00552:16
#00558:16
#04256:0000000000000024
#03756:0048
#0375b:000000000013000000000000000000000000000000000000
#03752:000000000013000000000000000000000000000000000000
#04358:00460000
#04352:1c00003600000000
#06555:00000000000000160000000000000000
#04656:000000000000000000000013000000000000000000000000
#0465b:000000000000000000000013000000000000000000000000
#05057:000000000000000000000013000000000000000000000000
#05052:000000000000000000000013000000000000000000000000
#0555b:0013
#05555:0013
#05452:0013
#05458:0013
#03254:14
#03258:14
#0013b0:13000000005300005300000000530000
#001380:00530000530000000053000053000000
#0023b0:53000053530000535300000000000000
#002380:00535300005353000000000000000000
#0033b0:53000053000000005300005300000000
#003380:00535300000000000053530000000000
#0043b0:330000000000000000000000000000000000005300000000330000000000005300003300000000000000000000000000
#004380:005600000000360000000000000000000000000000000000000000000000000000000000000000000056000000000000
#004390:000000000000005500000000350000000000000000000000000000000000000000000000005500003500000000000000
#0043a0:000000000000000000000000005400000000340000000000000000000000000000000054340000000000000000000000
#0043c0:000000000000000000000000000000000000000000000000005200000000320000000000000000000000000000000000
#005380:26
#001321:000000001300000000000000000000000000000000530000000000000000530000000000000000000000000000530000
#001351:000000000000005300000000000000000000530000000000000000000000000000530000000000000000530000000000
#002321:00000000000000005300005353000053
#002351:00000000000000000053530000535300
#003321:00000000530000530000000053000053
#003351:00000000005353000000000000535300
#004321:335600000000365500000000355400000000345300000000335200000000325300003354345500003556000000000000
#005321:26
#005321:0000000013230000
#005380:000000000000000000000000000000130023000000000000
#005351:000000000000000000000000000000000013000000000000
#005321:0000000000000023
#0063b1:0000000013230000
#006350:000000000000000000000000000000130023000000000000
#006381:000000000000000000000000000000000013000000000000
#0063b1:0000000000000023
#007381:0000000013230000
#007350:000000000000000000000000000000130023000000000000
#0073b1:000000000000000000000000000000000013000000000000
#007381:0000000000000023
#010381:1200002200000000
#0113a1:122200
#013361:12220000
#0133c0:00122200
#013341:00001222
#0133a0:00000012
#0143a0:22
#014321:12
#014361:0000002200000000
#0153a1:12220000
#015340:00122200
#016350:1323000000000000
#0163b1:0013230000000000
#016320:0000132300000000
#016381:0000001323000000
#016350:0000000013230000
#0163b1:0000000000132300
#016320:0000000000001323
#016381:0000000000000013
#017381:23
#017350:1323000000000000
#018320:00130000
#018350:000000000000000000000023000000000000000000000000
#018350:0013
#018320:00000023
#0203b0:13
#020380:000000000023000000000000000000000000000000000000
#020380:00130000
#0203b0:0000002300000000
#0233a0:0012220000000000
#023380:00000056000000000000000000000000
#023351:0000122200000000
#023331:00000000005600000000000000000000
#023390:0000001222000000
#023370:00000000000000560000000000000000
#023341:0000000012220000
#023321:00000000000000000056000000000000
#023321:00000013
#024361:23
#025381:000000000000000000130000000000002300000000000000
#0253b1:0033
#025320:000013
#025350:000000000023
#0263a0:14
#026360:00240000
#026340:00000014
#026320:0000000000000054
#027340:34240000
#027360:0054000000000000
#027320:0014
#028320:3424
#028360:00340000
#0273a1:0014
#027361:00000034
#0283a1:3424
#029321:14240000
#029351:0054000000000000
#0293a0:14240000
#029370:000000000000000000000000000000000000000000000000000000000000000000000000000000000000000000000000000000000000000000000000000000000000000000000000000000000000000000000000000000000000000000000000000000000000000000000000000000000000000000000000000000000000000000000000000000000000000000000000000000000000000000000000000000000000000000000000000000000000000000000000000000000000000000000000000000000000000000000000000000000000000000000000000000000000000000000000000000000000000000000054000000000000000000000000000000000000000000000000000000000000000000000000000000000000000000000000000000000000000000000000000000000000000000000000000000000000000000000000000000000000000000000000000000000000000000000000000000000000000000000000000000000000000000000000000000000000000000000000000000000000000000000000000000000000000000000000000000000000000000000000000000000000000000000000000000000000000000000000000000000000000000000000000000000000000000000000000000000000000000000000000000000000000000000000000000000000000000000000000000000000000000000000000000000000000000000000000000000000000000000000000000000000000000000000000000000000000000000000000000000000000000000000000000000000000000000000000000000000000000000000000000000000000000000000000000000000000000000000000000000000000000000000000000000000000000000000000000000000000000000000000000000000000000000000000000000000000000000000000000000000000000000000000000000000000000000000000000000000000000000000000000000000000000000000000000000000000000000000000000000000000000000000000000000000000000000000000000000000000000000000000000000000000000000000000000000000000000000000000000000000000000000000000000000000000000000000000000000000000000000000000000000000000000000000000000000000000000000000000000000000000000000000000000000000000000000000000000000000000000000000000000000000000000000000000000000000000000000000000000000000000000000000000000000000000000000000000000000000000000000000000000000000000000000000000000000000000000000000000000000000000000000000000000000000000000000000000000000000000000000000000000000000000000000000000000000000000000000000000000000000000000000000000000000000000000000000000000000000000000000000000000000000000000000000000000000000000000000000000000000000000000000000000000000000000000000000000000000000000000000000000000000000000000000000000000000000000000000000000000000000000000000000000000000000000000000000000000000000000000000000000000000000000000000000000000000000000000000000000000000000000000000000000000000000000000000000000000000000000000000000000000000000000000000000000000000000000000000000000000000000000000000000000000000000000000000000000000000000000000000000000000000000000000000000000000000000000000000000000000000000000000000000000000000000000000000000000000000000000000000000000000000000000000000000000000000000000000000000000000000000000000000000000000000000000000000000000000000000000000000000000000000000000000000000000000000000000000000000000000000000000000000000000000000000000000000000000000000000000000000000000000000000000000000000000000000000000000000000000000000000000000000000000000000000000000000000000000000000000000000000000000000000000000000000000000000000000000000000000000000000000000000000000000000000000000000000000000000000000000000000000000000000000000000000000000000000000000000000000000000000000000000000000000000000000000000000000000000000000000000000000000000000000000000000000000000000000000000000000000000000000000000000000000000000000000000000000000000000000000000000000000000000000000000000000000000000000000000000000000000000000000000000000000000000000000000000000000000000000000000000000000000000000000000000000000000000000000000000000000000000000000000000000000000000000000000000000000000000000000000000000000000000000000000000000000000000000000000000000000000000000000000000000000000000000000000000000000000000000000000000
#029360:00000014
#0303a0:24
#030361:14
#030321:00240000
#031321:00000014
#032341:24
#0313a0:00000014
#032380:24
#033320:0014
#033360:00000024
#0333a1:00000014
#034371:25
#034320:15
#034340:00260000
#0343a1:00140024
#034361:0054
#036321:0013
#036351:000000000000000000000000000000000023000000000000
#036351:00000013
#036321:0000000000000023
#0363b0:0000000000000013
#0373b0:000000000023000000000000000000000000000000000000
#037321:130000000023000000000000000000000000000000000000
#039351:0000000013230000
#039380:0000000000132300
#039321:00000013
#039351:0000000000000023
#0393b0:0000000000000013
#040380:0023000000000000
#040320:0000001300000000
#040350:0000000000230000
#0403b0:0000000000000013
#0413b0:23
#041350:0013230000000000
#042320:000000000000001400000000
#042360:000000000000000000000000000000000024000000000000
#0423a1:000000000000000000000000000000000014000000000000
#042361:000000000024
#042361:0000000000000014
#043321:2c
#045321:0013
#045361:00000023
#0453b0:00000013
#046370:23
#046370:000013000033000000000000000000000000000000000000
#046390:003300
#0463b0:000000000000000000000023000000000000000000000000
#046321:000000000013000000000000000000000000000000000000
#046341:003300
#046361:000000000000000000000023000000000000000000000000
#047321:132300000000000000000000
#047370:001300000000000000000000
#0473b0:000000000023000000000000000000000000000000000000
#047380:0000000013230000
#047350:00000013
#047320:000000000000000000000000000000000000000000000023
#047381:000000000000000000000000000000000000000000000013
#0483b1:0023000000000000
#048351:0000132300000000
#0483b1:00001323
#048381:0000000000330000
#048320:00000013
#048350:0000000000000033
#049320:23
#049320:000013000023000000000000000000000000000000000000
#049381:000000000013000000000000000000000000000000000000
#0493b1:0000002300000000
#0493b1:0013
#049371:00000023
#049320:00000013
#050360:23
#050360:000013000033000000000000000000000000000000000000
#050340:003300
#050320:000000000000000000000023000000000000000000000000
#0503b1:000000000013000000000000000000000000000000000000
#050391:003300
#050371:000000000000000000000023000000000000000000000000
#0513b1:132300000000000000000000
#051360:001300000000000000000000
#051320:000000000023000000000000000000000000000000000000
#051350:0000000013230000
#051380:0000000000001323
#051321:0000000000000013
#052321:23
#0523b0:13
#052380:00230000
#052321:0013000000000000
#052351:00230000
#053321:1323
#053351:00330000
#053380:00130000
#0533b0:0023
#054350:000013000033000000000000000000000000000000000000
#054320:0000003323000000
#0543b1:000013000033000000000000000000000000000000000000
#054381:0000003323000000
#055381:000013000033000000000000000000000000000000000000
#0553b1:0000003323000000
#055320:000013000033000000000000000000000000000000000000
#055350:0000003323000000
#056350:000013000000000000330000000000000000000000000000
#056320:000000000033000000000000230000000000000000000000
#0563b1:000013000000000000330000000000000000000000000000
#056381:000000000033000000000000230000000000000000000000
#057341:18
#057361:000054540000000000000000
#057321:0000002c00000000
#057321:0013
#057361:00000053
#058321:5353
#058341:0053000053000000000000530000530000000000
#058331:00530000000053000000
#058351:0000005300000000000000000053000000000000
#058361:00530053
#059321:5353
#059341:0053000053000000000000530000530053000053
#059331:00530000000053000053
#059351:0000005300000000000000000053000000530000
#059361:00530053
#060321:5353
#060341:0053000053005300005300530000530000000000
#060331:00530000530053000000
#060351:0000005300000053000000000053000000000000
#060361:00530053
#061321:53005333
#061361:00530000
#061341:000000000033
#061351:000000000000000000000033
#062361:3323
#062321:00330000
#062341:003300
#062351:000000000033000000000000
#057370:0013
#057390:0000000000000000000000530000530000000000
#057380:0000005300
#0573a0:0000000000000000000000000053000000000000
#0573b0:00000053
#058370:5353
#0583b0:00530053
#058390:0000000000000000000000000000000053000053
#0583a0:0000000000000000000000000000000000530000
#058380:00000000000000000053
#059370:5353
#0593b0:00530053
#059390:0000000000005300005300530000530053000053
#0593a0:0000000000000053000000000053000000530000
#059380:00000000530053000053
#060370:5353
#060390:0053000053005300005300000000000000000000
#060380:00530000530000000000
#0603a0:0000005300000053000000000000000000000000
#0603b0:00530053
#061370:5333
#061390:000000530000000000000000530000000000000000000000000000000000000000000033000000000000000000000000000000000000000000000000
#061380:00530000000000000000
#0613a0:000000000000000000530000000000000000000000000000000000000000000000000000000000003300000000000000000000000000000000000000
#0613b0:00530033
#0623b0:3323
#062390:003300000000000000000000
#062380:003300000000
#062370:00330000
#063320:000000001600000056000000560000560000560000560000
#063340:000000000000540000540000005400005400005400005400
#064320:5656565600000000
#064340:005400005400005400000000000000000000000000000000
#064360:0000000000220000
#063381:000000001600540056540000565400565400565400565400
#064381:565400565400565400560000000000220000000000000000
#011960:001400
#011920:000054
#012940:24
#0179b0:000000130053
#017970:000053
#018970:23
#0629b0:0000000000000000000000000000000000000000001300000000000000000000
#062980:00000023
