This file was generated by Ched 2.7.0.0.
#TITLE ""
#ARTIST ""
#DESIGNER ""
#DIFFICULTY 0
#PLAYLEVEL
#SONGID ""
#WAVE ""
#WAVEOFFSET 0
#JACKET ""
#REQUEST "ticks_per_beat 480"
#00002: 4
#BPM01: 134
#BPM02: 201
#BPM03: 114
#BPM04: 115
#BPM05: 116
#BPM06: 117
#BPM07: 118
#BPM08: 119
#BPM09: 121
#BPM0A: 123
#BPM0B: 125
#BPM0C: 146
#BPM0D: 153
#BPM0E: 161
#BPM0F: 171
#BPM0G: 229
#BPM0H: 223
#BPM0I: 216
#BPM0J: 209
#BPM0K: 203
#BPM0L: 196
#BPM0M: 188
#BPM0N: 180
#BPM0O: 172
#BPM0P: 166
#BPM0Q: 160
#BPM0R: 190
#BPM0S: 140
#BPM0T: 132
#BPM0U: 129
#BPM0V: 135
#00008: 01
#03608: 0001
#02608: 02
#06408: 05040300
#06308: 09080706
#06208: 0T0U0B0A
#06108: 0D0C0S0V
#06008: 0G0R0F0E
#05908: 0K0J0I0H
#05808: 0O0N0M0L
#05708: 00000Q0P
#TIL00: ""
#VOLUME: ""
#HISPEED 00
#MEASUREHS 00
#00512:00140000
#00516:24
#00510:41
#00614:14
#0061a:00140000
#00718:14
#00712:00140000
#0101a:0014
#01114:14
#01212:0014
#01414:14
#01418:0014
#01514:14
#01518:0014
#01812:00140000
#01818:0014
#01814:00000014
#0191a:1414
#01914:00140014
#0201a:14
#02012:00140000
#02018:0014
#02014:00000014
#02118:1414
#02112:00140014
#02110:41
#0221a:14
#02214:00140000
#02218:0014
#02212:00000014
#02318:14
#02312:00140000
#0231a:0014
#02314:00000014
#0241a:14
#02412:0014
#02418:0014
#02514:14
#0251a:14
#02614:00000014
#0261f:11
#02912:14
#02918:00000014
#03218:14
#03214:00000014
#03514:14
#03518:00000014
#03718:00000014
#0371a:0024
#03712:0024
#0371f:0021
#03814:14
#03818:00140000
#03812:0014
#0381a:00000014
#03810:0041
#03912:14
#0391a:0014
#03918:00000014
#04016:14
#04012:0014
#04014:00140014
#04116:14
#04118:00140000
#04114:00000014
#04112:0024
#0411a:0024
#04218:14
#04214:00140000
#0421a:0024
#04212:00000024
#04518:0014
#04514:00000014
#04614:00000014
#04718:14
#04712:0014
#0471a:00000014
#04710:41
#04814:1414
#04818:00140014
#04912:14
#0491a:00140000
#04914:0014
#04918:00000014
#05018:00000014
#05114:14
#0511a:0014
#05112:00000014
#0521a:0014
#05216:00000014
#05218:24
#05214:00240000
#05418:14
#05414:0014
#05410:41
#0551a:14
#05512:0014
#05618:14
#05614:0014
#05718:14
#02718:0014
#0271a:0000000000000014
#03014:0014
#03012:0000000000000014
#06512:26
#0331a:0024
#03312:0024
#0431a:24
#04312:00240000
#00912:000000000000340000340000000000340034000000000000
#00814:000000000034000000000000000034000000000000000000
#00812:000000000000000000000000000000000000000000000034
#01310:41
#03952:14
#04758:14
#05154:14
#02758:0054
#0275a:0000000000000024
#03054:0064
#03052:0000000000000024
#00556:14
#0435a:14
#04352:00140000
#01054:14
#0185a:14
#0265a:14
#0345a:00140000
#03452:00140000
#03754:14
#0455a:00140000
#04552:00140000
#05352:0014
#06256:0014
#06552:00000000000000160000000000000000
#0013a0:14
#001380:0054
#0023a0:54
#002380:0054
#0033a0:54
#003380:0054
#0043a0:34
#004390:00340000
#004380:0034
#004370:00000034
#005360:24
#0053a0:00001424
#006320:00001424
#0073a0:00001424
#008320:140000000000000000000000000000000000340000000034
#008340:000000000034000000340000000034000000000000000000
#009340:000000340000000000000000000000000000000034000000
#009320:000000000000340000340000340000340034000000000000
#010340:24
#011380:0014
#0123a0:24
#0133a0:14
#013380:0024
#016340:14
#016330:00340034
#016320:0034
#017340:24
#017380:0014
#0183a0:24
#0253a0:0014
#0263a0:24
#027380:0014
#0273a0:0000000000000054
#028380:00240000
#030340:0014
#030320:0000000000000054
#031340:00240000
#0333a0:0014
#0343a0:00240000
#033321:0014
#034321:00240000
#036341:0014
#037341:24
#043381:0014
#0433a1:00000024
#044341:14
#044321:00240000
#0443a1:0014
#044381:00000034
#045381:34
#0453a1:00240000
#044320:0014
#044340:00000034
#045340:34
#045320:00240000
#0463a0:1424
#050320:1424
#053320:1424
#053340:00340000
#057320:0014
#058350:0054
#059320:0054
#060360:0054
#061320:0034
#061330:00000034
#062340:34
#062350:00340000
#062360:0024
#063380:001600000000
#064390:0000000000240000
#065320:1600000000000036000000000000260000000000000000000000000000000000
