This file was generated by Ched 2.7.0.0.
#TITLE ""
#ARTIST ""
#DESIGNER ""
#DIFFICULTY 0
#PLAYLEVEL
#SONGID ""
#WAVE ""
#WAVEOFFSET 0
#JACKET ""
#REQUEST "ticks_per_beat 480"
#00002: 4
#BPM01: 103
#00008: 01
#TIL00: ""
#VOLUME: ""
#HISPEED 00
#MEASUREHS 00
#00918:14
#00910:41
#0031a:14
#0021a:14
#0011a:14
#0041a:14
#00712:14
#00612:14
#00512:14
#00812:14
#01214:14
#01018:14
#01114:14
#0131a:14
#01612:14
#01718:14
#02014:14
#01412:14
#0151a:14
#01510:41
#01814:14
#01918:14
#02212:14
#02318:14
#0211a:14
#02110:41
#02414:14
#02612:14
#02718:14
#0251a:14
#0251f:11
#02814:14
#03118:2616
#0311f:21
#03212:1616
#03210:41
#03318:16
#03312:0016
#03618:1616
#03712:16
#03718:0016
#03512:2616
#04112:0016
#04118:16
#04018:16
#04012:0016
#03912:0016
#03918:16
#03910:41
#04518:0016
#04512:16
#04510:41
#04412:16
#04418:0016
#04318:0016
#04312:16
#029380:1424
#030340:1424
#034380:1626
#038320:1626
#042380:1626
#046320:16
#047320:34
#048320:24
#0493a0:14
#0503a0:24
#051320:14
#052340:24
#0533a0:14
#054380:34
#0553a0:34
#0563a0:34
#0573b0:23
