This file was generated by Ched 2.7.0.0.
#TITLE ""
#ARTIST ""
#DESIGNER ""
#DIFFICULTY 0
#PLAYLEVEL
#SONGID ""
#WAVE ""
#WAVEOFFSET 0
#JACKET ""
#REQUEST "ticks_per_beat 480"
#00002: 4
#BPM01: 103
#00008: 01
#TIL00: ""
#VOLUME: ""
#HISPEED 00
#MEASUREHS 00
#0091a:1414
#00912:00140014
#00910:41
#01018:1414
#01012:00140014
#0111a:1414
#01114:00140014
#01218:1414
#01214:00140014
#0131a:14140000
#01314:0014000000000000
#01312:00001414
#01318:0000000000140000
#0141a:14140000
#01414:0014000000000000
#01412:00001414
#01418:0000000000140000
#0171a:14
#01714:0014000000001400
#01718:0000140000140000
#01712:0014
#0181a:14
#01814:0014000000001400
#01818:0000140000140000
#01812:0014
#0191a:14
#01914:0014000000001400
#01918:0000140000140000
#01912:0014
#02118:1400000000140000
#02114:0014000014000000
#0211a:00140000
#02112:00000014
#02110:41
#02218:1400000000140000
#02214:0014000014000000
#0221a:00140000
#02212:00000014
#02318:1400000000140000
#02314:0014000014000000
#0231a:00140000
#02312:00000014
#03112:0014000000000000
#0311a:24140000
#03114:00001414
#03118:0000000000140000
#0311f:21
#0331a:14140000
#03312:0014001400000000
#03318:00001414
#03314:0000000000140014
#0351a:14
#03514:0014000014000000
#03518:0000140000140000
#03512:00000014
#0371a:14140000
#03714:0014001400000000
#03718:00001414
#03712:0000000000140014
#03812:0014
#0381a:00000014
#03814:0000000000000014
#03914:0014
#03918:00000014
#03910:41
#04018:0014
#04014:00000014
#04112:0014
#04118:0014000000001400
#0411a:14
#04218:0014
#04214:0014000000001400
#04212:14
#0421a:0000000000000014
#02514:1400000000140000
#02518:0014000014000000
#02512:00140000
#0251a:00000014
#0251f:11
#02614:1400000000140000
#02618:0014000014000000
#02612:00140000
#0261a:00000014
#02714:1400000000140000
#02718:0014000014000000
#02712:00140000
#0271a:00000014
#02412:0014
#02418:0000000000140000
#02414:00000014
#0241a:0000000000000014
#0281a:0014
#02814:0000000000140000
#02818:00000014
#02812:0000000000000014
#03018:00000014
#03014:0000000000000014
#03015:00140000
#03012:14
#03214:00001414
#03218:0000000000140000
#0321a:14140000
#03212:0014000000000000
#03210:41
#02917:00140000
#0291a:14
#0341a:0014000000000000
#03418:14
#03412:0000000000140000
#03414:0014
#00812:14
#00312:1414
#00212:1414
#00112:1414
#0071a:1414
#0061a:1414
#0051a:1414
#0361a:14
#03614:0014000014000000
#03618:0000140000140000
#03612:00000014
#04312:0014000000001400
#04314:14
#0431a:0014
#0441a:0014000000001400
#04418:14
#04412:0014
#04518:0000000014000014
#04514:14000014
#04510:41
#0481a:0014
#04814:00000014
#05012:0014
#05018:00000014
#0521a:0014
#05214:00000014
#01510:41
#0295a:6414
#02957:00240000
#03055:00240000
#03052:5414
#0345a:0024000000000000
#03458:54
#03452:0000000000240000
#03454:0064
#04158:0024000000000000
#0415a:64
#04254:0024000000000000
#04252:54
#00852:54
#00854:0014
#04352:0024000000000000
#04354:64
#0445a:0024000000000000
#04458:54
#04554:64
#04856:14
#05056:14
#05256:14
#004380:14240000
#004340:00001424
#008320:14
#008340:0024
#0153a0:14
#015380:00240000
#015320:0014
#015340:00000024
#016380:14
#0163a0:00240000
#016340:0014
#016320:00000024
#0203a0:14
#020380:00240000
#020320:0014
#020340:00000024
#024380:14
#0243a0:00240000
#028340:14
#028320:00240000
#0293a0:1424
#029370:00540000
#030320:1424
#030350:00540000
#034380:14240000
#0343a0:0054000000000000
#034340:00001424
#034320:0000000000540000
#038380:14
#0383a0:00240000
#0393a0:14
#039380:00240000
#040320:14
#040340:00240000
#0413a0:14240000
#041380:0054000000000000
#042320:14240000
#042340:0054000000000000
#043340:14240000
#043320:0054000000000000
#044380:14240000
#0443a0:0054000000000000
#045340:14
#045320:00240000
#046340:14
#047320:34
#047330:00340000
#047340:0034
#047350:00000034
#048360:24
#0493a0:14
#049390:00340000
#049380:0034
#049370:00000034
#050360:24
#051320:14
#051330:00340000
#051340:0034
#051350:00000034
#052360:24
#0533a0:14
#053390:00340000
#053380:0034
#053370:00000034
#054360:34
#054370:00340000
#054380:0034
#054390:00000034
#0553a0:34
#0563b0:33
#0573b0:23
