This file was generated by Ched 2.7.0.0.
#TITLE ""
#ARTIST ""
#DESIGNER ""
#DIFFICULTY 0
#PLAYLEVEL
#SONGID ""
#WAVE ""
#WAVEOFFSET 0
#JACKET ""
#REQUEST "ticks_per_beat 480"
#00002: 4
#BPM01: 180
#BPM02: 170
#BPM03: 160
#BPM04: 140
#BPM05: 130
#BPM06: 120
#BPM07: 150
#BPM08: 146
#BPM09: 100
#BPM0A: 115
#00708: 01
#07408: 02
#07608: 07020000
#07508: 0300000004000506
#07908: 0308
#08308: 0609
#08008: 07
#00008: 09
#08408: 0A
#TIL00: ""
#VOLUME: ""
#HISPEED 00
#MEASUREHS 00
#0071a:14
#00710:41
#0081a:14
#01118:14
#01218:14
#0201a:14
#0211a:14
#02214:14
#02314:14
#02818:14
#02918:14
#03012:14
#03112:14
#03618:14
#03610:41
#03714:14
#03818:14
#06814:14
#06918:14
#07314:14
#04112:14
#0011a:00000000000000000000000000000000000000000000000000000000000000000000000000000000000000000000000000000000000000000000000000000014
#00212:0000000000000000000000000000000000000000000000000000000000000014
#0041a:14
#00512:14
#00912:14
#01012:14
#01314:14
#01414:14
#01912:14
#0401a:14
#03914:14
#0421a:14
#04312:14
#0431f:11
#05212:0016
#05218:26
#0521f:21
#05412:16
#05418:0016
#05618:14
#05614:0014
#05718:14
#05714:0014
#06018:0016
#06012:26
#06218:16
#06212:0016
#07218:14
#07210:41
#01512:24
#0151a:24
#07012:24
#0701a:24
#01618:26
#01610:41
#0511a:24
#05112:24
#0481a:24
#04812:24
#0491a:24
#04912:24
#0501a:24
#05012:24
#04419:0034
#04518:34
#04613:0034
#04714:34
#07719:34
#0781a:34
#05310:41
#02610:41
#016380:16
#0183a0:24
#0243a0:14
#0253a0:24
#026320:14
#027320:24
#0323a0:14
#0333a0:24
#034320:14
#035320:24
#0443a0:14
#044390:0034
#045380:3424
#046320:14
#046330:0034
#047340:3424
#053380:1626
#055320:1626
#058380:14
#059380:24
#061320:1626
#063380:1626
#064320:14
#065320:24
#0663a0:14
#0673a0:24
#074380:1434
#075380:3434
#076380:34
#077390:34
#0783a0:34
#0793a0:24
#080340:14
#081330:34
#082320:34
#083330:34
#084340:24
#084380:0014
#0883a0:0024000000000000
