This file was generated by Ched 2.7.0.0.
#TITLE ""
#ARTIST ""
#DESIGNER ""
#DIFFICULTY 0
#PLAYLEVEL
#SONGID ""
#WAVE ""
#WAVEOFFSET 0
#JACKET ""
#REQUEST "ticks_per_beat 480"
#00002: 4
#BPM01: 180
#BPM02: 170
#BPM03: 160
#BPM04: 140
#BPM05: 130
#BPM06: 120
#BPM07: 150
#BPM08: 146
#BPM09: 100
#BPM0A: 115
#00708: 01
#07408: 02
#07608: 07020000
#07508: 0300000004000506
#07908: 0308
#08308: 0609
#08008: 07
#00008: 09
#08408: 0A
#TIL00: ""
#VOLUME: ""
#HISPEED 00
#MEASUREHS 00
#0431f:11
#04315:00000013000000001300130000000000
#04318:00001300130000000013000000000000
#0431b:0000002300002300
#04312:23000023
#0621b:1300000000230000
#06218:0000001300000000
#06215:00130000
#06213:0000000000000023
#06212:2400000000230000
#0621a:0000000000000023
#07114:00000000000000000014001400140014
#07118:0000000014141414
#0521b:0000131300000013
#05212:2400131300000000
#0521f:21
#0521a:24
#0531b:0000001300000000
#05317:0013000000000000
#05318:0000000000000013
#05310:41
#08412:0013
#0841b:0013
#0571b:0013
#05716:0013
#05712:13
#05717:13
#0561b:0013
#05616:0013
#05612:13
#05617:13
#03512:2300000000160000
#03518:0016002300002300
#03514:0022
#0351a:22
#0351b:0023
#03515:00230000
#07415:00000013
#07414:0013
#07413:00130000
#07412:13
#07418:0000000000000013
#07419:0000000000130000
#0741a:0000001300000000
#0741b:0013000000000000
#07515:13
#07514:00130000
#07513:0013
#07512:00000013
#07518:0013000000000000
#07519:0000001300000000
#0751a:0000000000130000
#0751b:0000000000000013
#08313:0013001300130013001300130013001300130013001300130013001300130013
#08312:13131313131313131313131313131313
#0821a:0013001300130013001300130013001300130013001300130013001300130013
#0821b:13131313131313131313131313131313
#08116:13
#08017:13
#07816:13
#07717:0013
#0771b:13
#07616:0013
#07612:13
#07315:00000016
#07312:1300000013130000
#07318:00160000
#07215:00000016
#0721b:0000000013130000
#07212:00160000
#07218:26
#07210:41
#06115:0000001300130000
#0611b:0000000000000013
#06118:0000131300000000
#06112:13
#0611a:24
#06018:0000001300130000
#0601b:13
#06015:0000131300000000
#06012:2400000000000013
#05412:0000001300000013
#05415:1300000000130000
#05418:0000131300000000
#05815:0000001300001300
#05818:1300000000000013
#05812:1300000000130000
#0581b:0000131300000000
#0591b:13
#05912:1300002400000000
#05918:0013130000000000
#05915:00000013000000000000000000000000
#0591a:0000000000240000
#05916:0024
#05515:0000001300000000
#05518:0000001300000000
#0551b:0013000000000000
#04112:13000013
#0411b:1300001300000000
#0421b:13
#04216:0013
#04212:13
#04015:00000013
#04017:13
#04012:23
#04516:13001313
#04514:0000001300000013
#0451b:13131313
#03617:0000001300000013
#0361b:2300000000130000
#03616:13
#03610:41
#03418:1313
#03415:0000001300002300
#03412:0013
#0341b:00000023
#03315:00001313
#03318:00000013
#0331b:0000001313000000
#03312:13
#03218:00001313
#03215:00000013
#03212:0000001313000000
#0321b:13
#03115:0000001300000013
#03118:00130000
#03112:13
#0311b:0000000000130000
#02715:0000001313000000
#02718:13
#0271b:0013
#02618:0013
#0261b:13
#02615:0000000013000013
#02612:13
#02610:41
#02512:13000013
#0251b:0013
#02515:0000001300000000
#02518:13
#0241b:13000013
#02412:0013
#02418:0000001300000000
#02415:13
#0101b:13
#01015:13
#03018:00000013
#03012:00000013
#03015:13
#0301b:13
#0281b:0013
#02812:2300001313000000
#02818:13
#02815:0000000000000013
#02312:0000001300130000
#02318:0013001300000000
#02315:00130000
#0231b:13
#02215:00000013
#02218:13
#0221b:00000013
#02212:13
#06818:26130013
#06815:0000130000130000
#06812:0000000000000013
#0681b:0013
#06912:2613
#06918:1300001300001300
#06915:00130013
#0691b:0013
#02012:0013
#0201b:2300001313000000
#02015:13
#02018:0000000000000013
#01512:00000013
#01518:000000130000000000000000000000000000000000000000000000000000000013000000000000000000000000000000
#01515:130000130000000000000000000013000000000000000000
#0151b:0013
#01918:0000000026000013
#01912:2526
#01919:25
#01312:1300000000000013
#01315:0000001300000000
#0131b:0000130000130000
#01418:0013000000000000
#01412:0000001300000000
#0141b:0000001300000000
#01212:13000013
#01218:00130013
#01215:0000001300000000
#04417:13001313
#04419:0000001300000013
#04412:13131313
#03914:00130013
#03919:00130013
#0391b:0013
#03916:0013
#03917:13
#03912:13
#0471b:13
#04712:13000013
#04718:00130000
#04715:0013
#06518:00120012
#06516:0012
#06514:12
#0651a:12
#06418:00000012
#06416:0012
#0641a:00120000
#06414:00120000
#06312:0013
#0631b:0013
#06314:0023000000000000
#06319:0023000000000000
#06315:0000002300000000
#06318:0000002300000000
#00815:0013
#00818:00130000
#00812:00000013
#0081b:13
#0461b:2313
#04615:0000130000000013
#04618:0000001300001300
#04612:1323
#00712:14130000
#00718:00000013
#00715:0013
#0071a:14
#00710:41
#06712:0000000000160016
#06718:14141616
#06714:0014001400000000
#06615:0000001300130013
#06618:00131313
#0661a:24
#06612:24
#0491a:14
#04912:0014
#04916:2424
#04812:0014
#0481a:14
#04814:24
#04818:0024
#03816:13
#0381b:13
#03716:00000013
#03719:0013
#03717:00130000
#0371b:00000013
#03714:0013
#03712:00130000
#02915:00000013
#02912:00130000
#0291b:13
#02918:0000001300000000
#02118:00000013
#0211b:00130000
#02112:13
#02115:0000001300000000
#0111a:14
#0111b:0000000000000013
#01115:0000001300130000
#01118:00131300
#01112:14
#0091b:13
#00912:00130000
#00918:0000001300000000
#05114:14
#05118:14
#0181a:0024
#01812:0024
#01615:23
#01618:23
#01610:41
#0501a:24
#05012:24
#05019:0024
#05013:0024
#07012:24
#0701a:24
#08816:0072000000000000
#08818:0072000000000000
#05357:0023000000130000
#05352:0000000000130000
#0535b:0000002300000000
#05757:53000013
#05752:53000013
#05756:00136300
#0575b:00136300
#05657:53000013
#05652:53000013
#05656:00136300
#0565b:00136300
#05255:0000000000130000
#05258:0000000000130000
#05252:1400005300000000
#0525a:14
#0525b:0000006300000023
#05552:0000000000130000
#0555b:0063000000130000
#05555:0000006300000000
#05558:0000005300000000
#01458:0053000000130000
#01455:0000000000130000
#01452:0000005300000000
#0145b:0000006300000000
#06455:33
#06458:43
#03852:0013
#03857:0013
#03856:63
#0385b:63
#05152:0013
#0515b:0013
#05154:64
#05158:54
#02752:00000013
#02758:53000013
#02755:0063
#0275b:0063
#01852:1314
#0185b:13
#0185a:0014
#0365b:13
#03656:63
#03554:0022
#0355a:22
#03552:0000000000660000
#03558:0056000000000000
#06252:14
#0625b:63
#0615a:14
#06155:0000000000630000
#06158:0000005300000000
#06152:53
#07258:16
#07255:00000036
#07252:00360000
#0435b:0000001300001300
#04352:13000013
#01958:0016
#01952:1516
#01959:15
#01655:63
#01658:53
#04052:13
#04057:53
#0505a:14
#05052:14
#05059:0014
#05053:0014
#04854:14
#04858:0014
#04852:0014
#0485a:14
#04956:1414
#0495a:14
#04952:0014
#06355:0000006300000000
#06358:0000005300000000
#06352:0023
#0635b:0023
#07052:34
#0705a:44
#06952:36
#06958:53000023
#06955:00000023
#06858:46
#06855:00630000
#0665a:44
#06652:34
#06052:14
#0605b:63
#06055:0000006300000000
#06058:0000000000530000
#04652:0013
#0465b:13
#08452:0053
#0845b:0063
#08353:0063006300630063006300630063006300630063006300630063006300630063
#08352:63636363636363636363636363636363
#0825a:0053005300530053005300530053005300530053005300530053005300530053
#0825b:53535353535353535353535353535353
#08156:63
#08057:53
#07856:63
#07757:0023
#0775b:63
#07656:0023
#07652:53
#07355:00000046
#07358:00460000
#05458:0000005300000000
#05455:63
#05452:0000000000000053
#04152:53
#0415b:0000006300000000
#04256:0023
#04252:63
#04556:63
#03458:53
#03355:00000063
#03352:53
#03258:00000053
#0325b:63
#02658:0053
#0265b:63
#02655:0063
#02652:53
#0255b:0063
#02558:53
#02452:0053
#02455:63
#0105b:63
#01055:63
#03058:00000053
#03055:63
#0305b:53
#02255:00000063
#02258:53
#02252:63
#01352:5300000000000053
#01355:0000006300000000
#0135b:0000000000630000
#01252:53
#01258:00000053
#0585b:0000006300000000
#05852:53
#04457:53
#03152:53
#03155:0000006300000000
#0295b:63
#02958:0000006300000000
#02858:53
#02152:53
#02155:0000005300000000
#0095b:63
#00958:0000005300000000
#02358:0000005300000000
#02055:63
#001360:00000000000000000000000000000000000000000000000000000000000000000000000000000000000000000000000000000000000000000000000000000012
#002360:0000000000000000000000000000000000000000000000000000000000000022
#0023a1:0000000000000000000000000000000000000000000000000000000000000012
#0043a1:22
#004340:12
#005340:22
#005381:1200000000520000
#0063a1:0022
#0093b1:13
#009381:00230000
#009381:0000001300000000
#0093b1:00000023
#009350:00000013
#010350:33
#010320:0023
#0103b1:13
#010381:0023
#012321:13
#012351:00230000
#012381:00000013
#0133b1:23
#013320:13
#013350:00230000
#013350:0000001300000000
#013320:0000000000230000
#0133b1:0000000000130000
#013381:0000000000000023
#013320:0000000000000013
#014350:0023000000000000
#014381:0013000000230000
#0143b1:0000003300000000
#014320:0000001300000000
#014350:0000000000230000
#016350:13
#018320:23
#016381:13
#0183b1:23
#020351:13
#020321:0000002300000000
#021321:13
#021351:00230000
#021351:0000001300000000
#021321:00000023
#022381:13
#0223b1:0023
#022320:13
#022350:0023
#022350:00000013
#023320:23
#023380:0000001300000000
#0233b0:0000000000230000
#024350:13
#024320:0000002300000000
#024320:0013
#024350:00000023
#025380:13
#0253b0:0000002300000000
#0253b0:0013
#025380:00000023
#0263b0:13
#026380:0000002300000000
#026321:13
#026351:0000002300000000
#026381:0013
#0263b1:00000023
#026350:0013
#026320:00000023
#027380:13000023
#0273b0:0033
#027351:0013
#027321:00000023
#028381:13
#0283b1:0000002300000000
#0293b1:13
#029381:00230000
#029381:0000001300000000
#0293b1:00000023
#030351:13
#030321:0023
#0303b0:13
#030380:0023
#030380:00000013
#0313b0:23
#031321:13
#031351:00230000
#031351:0000001300000000
#031321:0000000000230000
#0323b1:13
#032381:0000002300000000
#032381:00000013
#0333b1:23
#033320:13
#033350:0000002300000000
#033350:00000013
#034320:23
#034381:13
#0343b1:0000002300000000
#0353a1:12220000
#035381:0056000000000000
#035341:00001222
#035321:0000000000560000
#036361:1300000000330000
#036321:0000003300000023
#038361:13
#038321:0000003323000000
#0383b0:13
#038370:0000003323000000
#040370:13
#0403b0:0023
#041320:13
#041360:0000002300000000
#0413b1:0000001300000000
#041371:00000023
#042321:13
#042361:0053
#043321:23
#044371:13
#0443b1:00230000
#045361:13
#045321:00230000
#051341:14
#051321:0023
#051380:14
#0513b0:0023
#052320:0000001300000000
#052350:0000000000230000
#0523b1:0000001300000000
#052381:0000000000230000
#0523b1:0000000000000013
#053371:0033000000230000
#0533b1:0000003300000000
#052320:0000000000000013
#053320:0000000000230000
#054350:13
#054320:00230000
#054380:0000001300000000
#0543b0:0000000000230000
#054320:0000000000000013
#055350:0033003300000000
#055320:0000000000230000
#0543b1:0000000000000013
#0553b1:0033000000230000
#055381:0000003300000000
#056321:13
#056361:00230000
#056370:13
#0563b0:00230000
#0563b0:0013
#056370:00000023
#056361:0013
#056321:00000023
#057321:13
#057361:00230000
#057370:13
#0573b0:00230000
#0573b0:0013
#057370:00000023
#057361:0013
#057321:00000023
#058321:13
#058351:00230000
#0583b1:0000001300000000
#058381:0000000000230000
#0603b1:13
#060381:00230000
#060351:0000001300000000
#060321:0000000000230000
#060380:0000000000130000
#0603b0:0000000000000023
#061320:13
#061350:00230000
#061380:0000001300000000
#0613b0:0000000000230000
#061351:0000000000130000
#061321:0000000000000023
#0623b1:13
#062381:00230000
#063351:0000001300330000
#063321:0053
#064351:23
#063380:0000001300330000
#0633b0:0053
#064380:23
#068350:00130000
#068320:0023
#069380:13
#0693b0:00230000
#069380:00000013
#0703a0:24
#069351:00000013
#070321:24
#076321:13
#076361:0053
#077321:23
#0773b0:13
#077370:0053
#0783b0:23
#078361:13
#080321:23
#080370:13
#0813b0:23
#081361:13
#082321:23
#0823b0:13535353535353535353535353535353
#0823a0:0053005300530053005300530053005300530053005300530053005300530053
#0833b0:23
#083321:13535353535353535353535353535353
#083331:0053005300530053005300530053005300530053005300530053005300530053
#084321:23
#084321:0013
#086361:0052
#088361:0022000000000000
#0843b0:0013
#086380:0052
#088380:0022000000000000
