This file was generated by Ched 2.7.0.0.
#TITLE ""
#ARTIST ""
#DESIGNER ""
#DIFFICULTY 0
#PLAYLEVEL
#SONGID ""
#WAVE ""
#WAVEOFFSET 0
#JACKET ""
#REQUEST "ticks_per_beat 480"
#00002: 4
#BPM01: 180
#BPM02: 170
#BPM03: 160
#BPM04: 140
#BPM05: 130
#BPM06: 120
#BPM07: 150
#BPM08: 146
#BPM09: 100
#BPM0A: 115
#00708: 01
#07408: 02
#07608: 07020000
#07508: 0300000004000506
#07908: 0308
#08308: 0609
#08008: 07
#00008: 09
#08408: 0A
#TIL00: ""
#VOLUME: ""
#HISPEED 00
#MEASUREHS 00
#00718:14
#00714:0014
#00710:41
#00818:14
#00814:0014
#0201a:14
#02014:0014
#02118:14
#02112:0014
#0451a:1414
#04514:00140000
#06814:0014
#06818:24
#02312:14
#02318:0014
#03712:1414
#03912:14
#03916:0014
#04218:14
#04412:1414
#04418:00140000
#0601a:1414
#06112:1414
#06218:1414
#06214:00140014
#06418:14
#06514:14
#06618:14
#06614:00140000
#06619:0014
#06613:00000014
#0671a:14
#06712:00140000
#06719:0014
#06713:00000014
#06918:0014
#06914:24
#0721a:0014
#07214:00140000
#07218:24
#07210:41
#00118:00000000000000000000000000000000000000000000000000000000000000000000000000000000000000000000000000000000000000000000000000000014
#00514:14
#00218:0000000000000000000000000000000000000000000000000000000000000014
#00414:14
#0111a:14
#01112:0014
#0121a:14
#01212:0014
#02412:14
#02518:14
#0271a:14
#02614:14
#02610:41
#02812:14
#02818:0014
#02914:14
#0291a:0014
#0311a:14
#03114:0014
#0321a:14
#03314:14
#03512:14
#03418:14
#0361a:1414
#03610:41
#04714:1414
#04718:00140000
#05214:00140014
#0521a:2414
#0521f:21
#0541a:14
#05418:0014
#05414:00140000
#05412:00000014
#05318:1414
#05312:00140014
#05310:41
#0551a:14
#05514:00140000
#05518:0014
#05512:00000014
#06318:14
#06314:0014
#07314:14
#07312:0014
#07318:00140000
#0431f:11
#01512:24
#0151a:24
#07012:24
#0701a:24
#01612:24
#0161a:24
#01610:41
#0191a:24
#01912:24
#01914:0024
#04612:24
#0461a:0024
#04818:24
#04812:24
#04814:0024
#0481a:0024
#0501a:24
#05012:24
#05013:0024
#05019:0024
#04914:24
#0491a:24
#04918:0024
#04912:0024
#01818:0024
#07419:00340000
#07418:00003434
#07519:00340000
#0751a:00003434
#04258:54
#06458:14
#06554:14
#01652:54
#0165a:64
#0435a:14
#01854:14
#01858:14
#0195a:14
#01952:14
#02452:54
#02558:54
#0275a:64
#02654:64
#0325a:64
#03354:64
#03552:54
#03458:54
#04652:14
#0465a:0014
#05152:0014
#0515a:0014
#05952:0014
#06858:14
#06954:14
#0705a:14
#07052:14
#009380:14
#0093a0:0024
#010340:14
#010320:0024
#0133a0:14
#013380:0024
#014320:14
#014340:0024
#016320:14
#018340:24
#0163a1:14
#018381:24
#0223a1:1424
#024321:14
#024341:0024
#025381:14
#0253a1:0024
#026341:14
#026321:0024
#0273a1:14
#027381:0024
#030321:1424
#0323a1:14
#032381:0024
#033341:14
#033321:0024
#034381:14
#0343a1:0024
#035321:14
#035341:0024
#038381:14
#0383a1:0024
#0403a1:1424
#041321:1424
#042381:14
#0433a1:24
#051341:14
#051321:0024
#051380:14
#0513a0:0024
#0563a0:14
#056380:0024
#057320:14
#057340:0024
#058380:14
#0583a0:0024
#059340:14
#059320:0024
#0743a0:14
#074390:00340000
#074380:00003434
#075380:34
#075390:00340000
#0753a0:00003434
#0763a0:34
#077380:24
#078320:14
#079340:24
#080380:14
#0813a0:24
#082340:14
#083320:34
#084340:24
#084320:0014
#088340:0024000000000000
#0843a1:0014
#088381:0024000000000000
