This file was generated by Ched 2.7.0.0.
#TITLE ""
#ARTIST ""
#DESIGNER ""
#DIFFICULTY 0
#PLAYLEVEL
#SONGID ""
#WAVE ""
#WAVEOFFSET 0
#JACKET ""
#REQUEST "ticks_per_beat 480"
#00002: 4
#BPM01: 86
#00008: 01
#TIL00: ""
#VOLUME: ""
#HISPEED 00
#MEASUREHS 00
#0021a:14
#00312:14
#00412:14
#01318:14
#01310:41
#02912:0016
#02918:26
#0291f:21
#02910:0041
#02714:14
#02718:0014
#03118:0016
#03112:26
#03018:1616
#03212:1616
#03512:16
#03518:0016
#03510:41
#00518:14
#00618:14
#00714:14
#00814:14
#01414:14
#01518:14
#01614:14
#0171a:14
#01710:41
#01812:14
#0191a:14
#02012:14
#0251f:11
#0011a:24
#03318:26
#03312:0026
#03418:26
#02110:41
#00910:41
#0093a0:14
#0103a0:24
#011320:14
#012320:24
#0213a0:14
#022380:24
#023320:14
#024340:24
#025380:14
#0263a0:24
#028340:1424
#034380:16362600
#036320:16362600
#037380:16
#037370:0036
#038380:36
#038370:0026
#039320:16
#039330:0036
#040320:36
#040330:00003626
