This file was generated by Ched 2.7.0.0.
#TITLE ""
#ARTIST ""
#DESIGNER ""
#DIFFICULTY 0
#PLAYLEVEL
#SONGID ""
#WAVE ""
#WAVEOFFSET 0
#JACKET ""
#REQUEST "ticks_per_beat 480"
#00002: 4
#BPM01: 190
#00008: 01
#TIL00: ""
#VOLUME: ""
#HISPEED 00
#MEASUREHS 00
#00514:14
#0061a:14
#00712:14
#00818:14
#00810:41
#00914:14
#0101a:14
#01112:14
#02118:14
#02214:14
#0231a:14
#02412:14
#02518:14
#02614:14
#0271a:14
#02812:14
#02810:41
#02918:14
#03014:14
#0301f:11
#0311a:14
#0361a:0014
#03714:14
#03818:14
#03812:0014
#03918:14
#04018:0016
#04012:26
#0401f:21
#04218:16
#04212:0016
#04412:1616
#04418:00160016
#04618:1616
#04812:0016
#04818:26
#05012:16
#05018:0016
#05218:1616
#05212:00160016
#05412:1616
#05612:0016
#05618:26
#05718:0016
#05816:0016
#06018:0016
#06012:26
#06112:0016
#06214:0016
#06210:41
#06418:16
#06412:0016
#06518:16
#06512:0016
#06818:16
#06812:0016
#06918:16
#06912:0016
#01810:41
#04110:00410000
#05310:41
#05758:0056
#05856:0026
#06152:0066
#06254:0026
#001380:14
#003380:34
#004380:24
#012380:14
#0133a0:34
#014380:34
#0153a0:34
#016380:24
#017340:14
#018320:34
#019340:34
#020320:24
#032320:14343434
#033330:34343434
#034340:34343434
#035350:34343434
#036350:24
#041320:1626
#043380:1626
#045320:1626
#047320:1626
#049380:1626
#051320:1626
#053380:1626
#055320:1626
#057380:1636
#058360:0056
#059380:0026
#061320:1636
#062340:0056
#063320:0026
#066380:1626
#067320:1626
#070380:1600360036000026
