This file was generated by Ched 2.7.0.0.
#TITLE ""
#ARTIST ""
#DESIGNER ""
#DIFFICULTY 0
#PLAYLEVEL
#SONGID ""
#WAVE ""
#WAVEOFFSET 0
#JACKET ""
#REQUEST "ticks_per_beat 480"
#00002: 4
#BPM01: 155
#00008: 01
#TIL00: ""
#VOLUME: ""
#HISPEED 00
#MEASUREHS 00
#00116:00001212000012000000000000120012
#00118:00000000001200120000121200001200
#00112:2424
#0011a:2424
#00418:00001300000000000000000013000013
#00415:00000000000000000000000013000013
#0041b:00000000131300000000130000001300
#00412:24000000131300000000130000001300
#0041a:24
#0061b:13001313
#00615:00001313000000000000000000130000
#00618:00000013000000000000000000001300
#00612:00000000001300000000130000000013
#00617:00000000001300000000130000000000
#00712:0014
#00713:0000000000140000
#00714:00000014
#0071b:1300000013131313
#00715:0013131300000014
#00718:00000013001300130000000000000000
#00818:0000000000130013
#00816:18000000001300000000000000000000
#0081b:00000000001300000000000013000000
#00812:00001313000000131300000000000013
#00817:00000013000000000000000000000000
#00815:00000000000000000000001300000000
#00915:0000000013000000130000000000000000000000000000000054000000000000
#00918:00000000001300000000005400000000
#00912:00000000000000130000000000005400
#0091a:0000000000140000
#0091b:00000000000000130000000000000000
#00919:0000000000000000000000000000000000000000005400000000000000000000
#00917:0000000000000000000000000000000000000000000000540000000000000000
#00916:00000054
#00914:00000000000000000000000000540000
#00913:0000000000000000000000000000000000000000000000000000005400000000
#01012:0000161c00000000001c000000001300
#01018:0016
#0101b:00000013
#01016:0000000000001414
#01215:0013001313000000
#01212:00000000130000000000001300000000
#01218:16001300000000130000000000000000
#01217:00000000000000000000001300000000
#0121b:00000000130000000000000000130000
#01216:00000000000000000000000000130000
#01210:41
#01318:1300130053130000
#0131b:0000000013000000000000535353000000000000000000001300000000000000
#01312:0000000013000000000000535353000000000000000000001300000000000000
#01315:1300130053130000
#01319:0000000000000000005300000000005300000000000000000000000000000000
#0131a:00000000005300530000000000000000
#01314:0000000000000000005300000000005300000000000000000000000000000000
#01313:00000000005300530000000000000000
#01418:00001300000000000000001300130000
#0141b:13000000130000130013000000000000
#01415:00000013000013001300000000001300
#01412:1300130000131300
#01518:00160000
#01515:0016
#01512:13130016
#0151b:13000013
#01612:1300000000000000140000000000000054000000000000000000000000130000
#01616:0014005400000000
#0161b:1300000000000000000000000000000000000000000000000000000000130000
#0161a:00000000140000141400000000000000
#01618:00000000000000000000130000130000
#01615:0000000000000000000000540054000000000000000000000000130000000000
#01613:0000000000000000005400000000005400000000000000000000000000000000
#01614:00000000005400540000000000000000
#01816:14140014140000000000000000000000
#0181b:1300001300130000
#01812:00000013000000000000130013000016
#01815:00000000000000130000000000130000
#01818:0000000013000013
#02018:16001300000013001300001300001300
#0201b:00000000130000000000000000130000
#02015:00001300000000130000130000000000
#02012:00000000130000000000000000130000
#02010:41
#02816:00131313
#02813:0000001300130000
#02812:0000000013000013
#02817:0000000000000013
#0281b:00130000
#02810:41
#02915:00131313
#02918:0000000000000013
#02916:1313001300000000
#0291b:0000001300000000
#02912:0000000000130000
#03112:00000000000000131300000013000000
#03116:00000013130000000000000000001300
#0311b:1300130000130013
#03117:0013
#03212:00130000000000001300000000001300
#03214:0000000000130000
#0321b:0000130000001313
#03217:1313000000000000
#03219:0000000000130000
#03216:00000013
#0331b:1300001300001300
#03312:1300001300001300
#03318:0000000000120012000000000000000013000000000000000000000000000000
#03316:00001212120000000000000000000000
#03315:0000000000130000
#03416:00001400001400000000000000000000
#0341a:00000014000000000000000000000000
#03412:0000001400132600
#03415:0013
#0341b:0000000000130000
#03418:00001326
#03512:13000014000000000000130026000000
#0351b:1300000000130000
#03516:00001400001400000000000000000000
#0351a:0000001400000000
#03518:00001326
#03515:0013
#0361b:13000013
#03615:0000000013000013
#03618:0000000013130013
#03612:1300001400001300
#03616:00001400001400000000000000000000
#0361a:00000014000000000000000000000000
#03610:41
#03818:00000000000000001212000000001200
#03816:00000000000000000000001212000000
#0381a:0024240000000000
#03812:0024240000000000
#04318:00001300001300000000130000001300
#04315:00000000130000000000001300000000
#0431b:00000000000000130000000013000000
#04312:14000000000000130000000013000000
#0431a:14
#04518:00001300001300000000001300000000
#04515:00000013000000000000130000130000
#04512:2c000000001300002c00001300000013
#0451b:00000013000000130000000000130000
#04618:00130013000013000000130000130000
#04615:00001300001300130000001300001300
#0461b:23232313
#04612:23000000230000002300000000000013
#04718:16001600001600160000160016000000
#04712:00160016001600001600160000160000
#04714:0000000000000016
#04716:00000000000000000000000000000016
#04812:00130000
#04814:0013
#04816:00000013
#04818:16
#04817:00130000
#04819:0013
#0481b:00000013
#04915:0013000000000013
#04912:23000013000000001600000016000000
#04918:00130000000000000000130016000000
#0491b:23
#0491f:21
#05015:0013000000000000
#0501b:23000013130000000000000000000000
#05012:23000000001300002600000000000000
#05018:00000000000013130000000000002600
#05014:0000000000260000
#05016:00000026
#05010:41
#05115:00130000000000000000000000000000
#05116:0000000000141414
#05112:1300130000130013
#05118:0013000000000000
#0511b:00000013000000131300000013000000
#05117:00000000000000330000000000000000
#05216:00000013000014000000140000001400
#0521b:0013130000000000
#05212:00000000001400140014001400140014
#0521a:00001414
#06218:0000000000000013
#06212:14001c00141400000000000000001300
#0621a:14000000141400000000000000000000
#06215:00000013
#0621b:00000023
#00518:00000000000000000000000000130000
#00515:00000000000000001353535353001300
#00512:00000000000000000000000000000013
#0051b:00001313
#00514:0000000000000000000000000000000000530053005300530000000000000000
#02412:1500000000000000140000000000140014000000000000000000000000130000
#02416:0014000000000000
#02415:00000000000000000000130000130000
#0241b:0000000000000000000000000000000000000000000000000000000000130000
#02418:00000000000000000000000000130000
#0241a:00140000
#02314:0015
#02315:00130000150000000000000000001300
#02318:13001300000000000000000000000013
#0231b:00000013000000000000000000000000
#02317:0000001300000000
#0231a:00000000000000130000000000000000
#02313:00000015
#02316:0000000000130000
#02319:00000000000000000000001300000000
#04415:00001300001300000000130000001300
#04418:00000000130000000000001300000000
#04412:14000000000000130000000013000000
#0441b:00000000000000130000000013000000
#0441a:14
#07315:0000000000000000000000530053000000000000130000000000000000000000
#0731b:13531323
#07312:00000000130000005300000023000023
#07318:0000005300530000000000000000000000000000130000000000000000000000
#0731a:0053000000000053000000000000000000000000000000000000000000000000
#07319:00530053000000000000000000000000
#07317:0053000000000000
#07313:0000000000000000005300000000005300000000000000000000000000000000
#07314:00000000005300530000000000000000
#07316:0000005300000000
#00218:00130013000013000013000000001300
#00215:00001300001300130000130000130000
#00212:23000000230000002300001300000013
#0021b:23232323
#0111b:00001313
#01118:00000000000000000013000000130000
#01115:0000000000130013
#01112:00002400000000000000001300000013
#0111a:0024240000000000
#01116:00240000
#01714:0013000000000000
#01719:0013000000000000
#0171b:00131300
#01718:0000001300130000
#01715:0000000000230013
#01712:00002323
#01918:00001200001200000000000000000000
#0191a:00000012000000000000000000000000
#01916:0000121200000000
#01914:00000000000000120000000000000000
#0191b:0012
#01919:00000000000000000012000012000000
#01917:00000000000000000000120000120000
#01915:00000000000000000000001200001200
#01913:00000000000000000000000000000012
#02115:13
#02112:0013000000000000
#0211b:0013000000000000
#02118:13000000001200120012001200120000
#02116:0000121212121200
#02215:00001300000000130000130013000013
#02212:00000000130000000000000000130000
#02218:00000013000013001300001300001300
#0221b:00000000130000000013000000000000
#02519:0013000000000000
#02514:0013000000000000
#02512:00130013
#02515:0000001300000000
#02518:0000001300000000
#0251b:00130013
#02616:1212000012120000
#02618:00120012000000000012001200000000
#02612:0000121200001212
#0261c:00000000001200120000000000120012
#03715:13
#03718:00001212120000000000000000000000
#03716:0000000000120012000000000000000000000000000000000000000013000000
#03712:0000001300130000
#0371b:00000000000000001300000000000013
#03717:00000000000000000000001300000000
#03714:00000013
#03719:00000000000000000000000000130000
#03016:13
#03013:0013000000130000
#03019:0000001300000000
#0301a:0000000000000013
#0301b:1313
#03012:00130013
#03916:12
#03912:00120000
#03918:0012
#0391c:00000012
#0391f:11
#0401c:00120012
#04012:00120012
#04016:12
#04018:0012
#0411c:00120012
#04112:00120012
#04116:12
#04118:0012
#04216:12000000120012000000000014141400
#04212:0000000013130000
#0421b:0000000013130000
#04218:00000000001200120000000000000000
#05315:00001300001300000000130000001300
#05318:00000000130000000000001300000000
#05312:00000000000000130000000013000000
#0531b:00000000000000130000000013000000
#0531a:14
#05515:00001300001300000000001300000000
#05518:00000013000000000000130000130000
#0551b:00000000001300000000001300000013
#05512:2c000013000000132c00000000130000
#05615:00130013000013000000130000130000
#05618:00001300001300130000001300001300
#05612:23232313
#0561b:23000000230000002300000000000013
#05418:00001300001300000000130000001300
#05415:00000000130000000000001300000000
#0541b:00000000000000130000000013000000
#05412:14000000000000130000000013000000
#0541a:14
#05718:0013000016001600
#0571b:00000013000000000000000000000000
#05715:00130000000000000000130000001300
#05712:23000016
#05818:0013000026000000
#05812:23000013130000000000000000002600
#0581b:23000000001300000000000000000000
#05815:00000000000013130000000000000000
#05816:0000000000260000
#05814:00000026
#05918:00130000000000000000000000000000
#05916:00000000000000330000140014001400
#0591b:1300130000130013
#05915:0013000000000000
#05912:00000013000000131300000013000000
#06017:00000013000000000000000000000000
#06012:00001300130000001414001400140000
#0601b:00000000001300130000000000000000
#06016:0000001300000000
#0601a:00000000000000000014001400140000
#06116:0018000000000000
#06112:00001418141c141c
#0611a:00141414
#0631b:13000000000013130000000000001300
#06319:0013000000000000
#06317:00130000
#06316:12
#06312:0012
#06318:00000023
#06310:41
#06512:0000120000130000
#06514:00000013
#06516:1200000000000013
#0651b:0013001300000013
#06518:00131300
#06517:0000000000130000
#06519:00000013
#06612:13000000130000000000130000000013
#0661b:13000000000000130000130013000000
#06618:00001300001300001300000000001300
#06615:00000000000013000000000000130000
#06412:00001300000013130000000000001300
#06415:00130023
#06418:12
#0641c:0012
#06715:13
#06712:00001300001400000014000000000000
#0671a:0000141414141400
#06716:00000000000000140000001400001400
#0671b:0013000000000000
#06812:1414000013000000
#06816:00140000001400000000000000000000
#06815:00000000000000000000130000130013
#06818:0000000000001313
#0681a:0000141400000000
#0681b:0013
#06918:00130000001300000013000000130000
#06915:0013001300130013
#06912:00000013000000130000001300000013
#0691b:23232323
#0711c:12000000000000000000000000120000
#07116:00120000000012000000000000120000
#07118:00001200001200001200120000000000
#07112:00000012000000001200120000000000
#0721b:13131313
#07212:0013001300130013
#07219:0053000000000000005300000000000000530000000000000053000000000000
#07217:00530000005300000053000000530000
#07215:0000005300000000000000530000000000000053000000000000005300000000
#07214:0000000000530000000000000053000000000000005300000000000000530000
#07216:00000053000000530000005300000053
#07218:0000000000000053000000000000005300000000000000530000000000000053
#07419:0000000000130000000000000000000000000000000000000000000000000000
#02715:1300130013131300
#02712:0013000000130000
#0271b:0000001300000013
#02718:0000131313001313
#00318:00001212000012000000000000120012
#00316:00000000001200120000121200001200
#0031a:2424
#00312:2424
#07018:0026000024000000
#07012:0000260000000024
#0701a:0000002400000000
#07016:0000000000240000
#07014:00000024
#00458:00000000000000130000000000000053
#00455:00000000000000130000000000000053
#00452:14000000005300000000000000000000
#0045b:00000000005300000000000000000000
#0045a:14
#00658:00000013000000000000000000000000
#00652:00000000005300000000000000000000
#0115a:00140000
#01156:00140000
#01252:00130000
#01258:46
#0125b:00130000
#01352:00000013
#0135b:00000013
#01552:13130046
#0155b:13000013
#01555:0046
#01558:00460000
#01652:1300000000000000000000000000000000000000000000000000000000230000
#0165b:1300000000000000000000000000000000000000000000000000000000230000
#01655:00000000000000000000000000530000
#01658:00000000000000000000000000530000
#01852:00000000000000000000130000000016
#0185b:0000000000130000
#02452:1500000000000000000000000000000000000000000000000000000000230000
#0245b:0000000000000000000000000000000000000000000000000000000000230000
#02455:00000000000000000000000000630000
#02458:00000000000000000000000000630000
#0245a:00240000
#02354:0015
#02355:00150000
#02353:00000015
#02852:0000000000000053
#0285b:00530000
#02856:0023
#02855:13
#02858:13
#0315b:0000000000230000
#03156:0000000000000063
#03157:0053
#0335b:00000053
#03352:00000053
#04752:0016
#04952:1316
#04958:00000016
#0505b:13
#05058:0000000000000016
#05152:0000630000000053
#07052:00160000
#07058:0016000000000000
#00152:1414
#0015a:1414
#00856:18
#01052:0000001c00000000001c000000001300
#0105b:00000013
#00952:00000000000000130000000000000000
#0095b:00000000000000130000000000000000
#0205b:00130000
#02052:00130000
#02058:16
#02158:00000000000000000000000000520000
#02156:00000052
#02252:12
#0225c:12
#0255b:00530053
#02552:00530000
#02558:0000002300000000
#02555:0000002300000000
#02956:2363000000000000
#0295b:0000002300000000
#0305b:2323
#03052:00230023
#03252:00230000000000000000000000000000
#0325b:00530000
#03452:0000001400131600
#0345b:0000000000130000
#03458:00000016
#0345a:00000014000000000000000000000000
#0385a:0014140000000000
#03852:0014140000000000
#03956:52
#03958:0052
#03952:00220000
#0395c:00000022
#04056:52
#04052:00220000
#04058:0062
#0405c:00000022
#04156:52
#04152:00220000
#04158:0062
#0415c:00000022
#0435a:14
#04352:14
#04452:14
#0445a:14
#04552:1c1c
#04858:16
#0535a:14
#0545a:14
#05452:14
#05552:1c1c
#0595b:0000530000000063
#05758:0016
#05752:00000016
#05852:1300000000000016
#06156:0018000000000000
#06152:00000018001c001c
#06252:001c000000000000
#06356:52
#06352:0022
#0635b:00000000000000530000000000000000
#06458:62
#0645c:0022
#06452:00000000000000630000000000000000
#06556:52
#06552:00220000
#06558:0013
#06852:0014000000000000
#0685a:0000001400000000
#0715c:00000000000000000000000000120000
#07156:00000000000000000000000000120000
#07352:00000000000000000000000000000053
#07459:0000000000230000000000000000000000000000000000000000000000000000
#07452:0000003300000000
#02755:5300530053235300
#02758:0000532353005323
#0275b:0000002300000023
#02752:0023000000230000
#0035a:1414
#00352:1414
#03552:00000014000000000000130016000000
#0355a:0000001400000000
#0355b:0000000000130000
#03558:00000016
#0365a:00000014000000000000000000000000
#03652:0000001400000000
#004320:00000000001300000000000000000000
#004350:00000000000000230000000000000000
#0043b1:00000000001300000000000000000000
#004381:00000000000000230000000000000000
#004381:00000000000000000000000000000013
#0053b1:00230000
#004350:00000000000000000000000000000013
#005320:00230000
#006320:00000000001300000000000000000000
#006360:0023
#0093b0:1323000000000000
#010380:1626000000000000
#010320:0000001626000000
#016350:00000000000000000000001300330000
#016320:0000000000000000000000000000000000000000000000000000000000530000
#017350:23
#016381:00000000000000000000000000130000
#0163b1:0000000000000000000000000000000000000000000000000000000000530000
#017381:23
#017321:00130000
#017351:0000002300000000
#0173b1:00000013
#017381:0000000000000023
#021361:00000012
#022321:22
#021380:00000000000000000000000000120000
#0223c0:22
#0243a0:00140000
#024360:0024
#024380:00000000000000000000001300330000
#0243b0:0000000000000000000000000000000000000000000000000000000000530000
#025380:23
#024351:00000000000000000000000000130000
#024321:0000000000000000000000000000000000000000000000000000000000530000
#025351:23
#0253b1:00132300
#025381:0000005300000000
#025320:00132300
#025350:0000005300000000
#0253b0:00000013
#026380:23
#027350:13333333
#027320:0053000000530000
#027380:0000005300000053
#028350:23
#027381:00133333
#0273b1:0000005300000053
#027351:0000000000530000
#028381:23
#0283b1:00130023
#028361:0053
#028321:0000000000000013
#029361:53
#029321:0023000000000000
#029360:0013000000230000
#0293b0:0000005300000000
#0303b0:13
#030360:00230000
#030321:00130000
#030371:0023
#0303b0:0013
#030360:00000023
#030321:00000013
#031371:23
#031371:00001323
#0313b1:0000000000530000
#031361:0000000000000013
#032321:00530000000000000000000000000000
#032361:00230000
#0323b0:00130000
#032370:0023
#033320:00000013
#034350:23
#0333b1:00000013
#034381:23
#039361:1222
#039321:00520000
#039380:0012
#0393c0:00000052
#040380:22
#040361:1222
#040321:00520000
#040380:0012
#0403c0:00000052
#041380:22
#041361:1222
#041321:00520000
#041380:0012
#0413c0:00000052
#042380:22
#049380:00162600
#051320:00130000
#051370:00000000000000332300000000000000
#051320:0000000000000013
#052360:0023000000000000
#057320:00162600
#0593b0:00130000
#059360:00000000000000332300000000000000
#0593b0:0000000000000013
#060370:0023000000000000
#0603a0:0000000000000014
#0613a0:24
#060321:0000000000000014
#061321:24
#062321:00000000000000140000240000000000
#0623a0:00000000000000140000240000000000
#063360:12
#063320:0052
#064360:22
#0633b1:00000000000000130000000000000000
#063381:0000000000230000
#064381:12
#0643c1:0052
#065381:22
#064320:00000000000000130000000000000000
#064350:0000000000230000
#065360:1222
#065320:00520000
#0733b0:00000000000000000000000013000023
#073321:00000000000000000000000000000013
#074391:0000000000530000000000000000000000000000000000000000000000000000
#074321:0000002300000000
#005950:00000000000000001353230000000000
#005940:0000000000000000000000000000000000530053000000000000000000000000
#0099a0:0000000000140000
#009920:0000000000000024
#013980:00132300
#0139b0:0000000000000000000000530053000000000000000000000000000000000000
#013951:00132300
#013921:0000000000000000000000530053000000000000000000000000000000000000
#016921:00142400
#016961:0000005400000000
#0729b1:13
#072971:00230000000000000000000000000000
#072921:0013000000000000
#072961:00000023000000000000000000000000
#0729b1:00130000
#072971:00000000002300000000000000000000
#072921:0000001300000000
#072961:00000000000000230000000000000000
#0729b1:0013
#072971:00000000000000000023000000000000
#072921:0000000000130000
#072961:00000000000000000000002300000000
#0729b1:00000013
#072971:00000000000000000000000000230000
#072921:0000000000000013
#072961:00000000000000000000000000000023
#0739b1:13230000
#073971:0053000000000000
#073920:00132300
#073960:0000005300000000
