This file was generated by Ched 2.7.0.0.
#TITLE ""
#ARTIST ""
#DESIGNER ""
#DIFFICULTY 0
#PLAYLEVEL
#SONGID ""
#WAVE ""
#WAVEOFFSET 0
#JACKET ""
#REQUEST "ticks_per_beat 480"
#00002: 4
#BPM01: 199
#00008: 01
#TIL00: ""
#VOLUME: ""
#HISPEED 00
#MEASUREHS 00
#06412:0016
#06410:41
#01714:14
#0181a:14
#0191a:14
#06518:1616
#06612:16
#06618:0016
#06812:0016
#06818:16
#06918:1616
#0241a:14
#02414:0014
#0251a:14
#02510:41
#02612:14
#02618:0014
#02712:14
#02012:14
#02118:14
#02212:14
#02312:14
#0281a:14
#02814:0014
#0291a:14
#03012:14
#03018:0014
#03112:14
#04018:14
#04118:14
#04214:14
#04314:14
#04418:14
#04518:14
#05018:2616
#0501f:21
#05212:1616
#05418:16
#05412:0016
#05612:16
#05618:0016
#05818:16
#05812:0016
#05918:1616
#06012:16
#06018:0016
#06112:1616
#06218:16
#06212:0016
#06712:1616
#07012:16
#07018:0016
#07112:1616
#07212:0016
#07218:26
#07612:0016
#07618:26
#07718:1616
#07418:0016
#07412:26
#07818:0016
#07812:26
#07912:1616
#0361f:11
#0161a:24
#01610:41
#05110:41
#03410:41
#00410:41
#0003a0:14
#0033a0:24
#004340:14
#007340:24
#008380:14
#009380:24
#010320:14
#011320:24
#0123a0:14
#0133a0:24
#014340:14
#015340:24
#032380:14
#0353a0:24
#036340:14
#039320:24
#046340:14
#047340:34
#048340:34
#049340:24
#051380:1626
#053320:1626
#055380:1626
#057320:1626
#063380:16
#064380:26
#073380:1626
#075320:1626
#080380:1600000036003636
#081380:0000360036003626
