This file was generated by Ched 2.7.0.0.
#TITLE ""
#ARTIST ""
#DESIGNER ""
#DIFFICULTY 0
#PLAYLEVEL
#SONGID ""
#WAVE ""
#WAVEOFFSET 0
#JACKET ""
#REQUEST "ticks_per_beat 480"
#00002: 4
#BPM01: 199
#00008: 01
#TIL00: ""
#VOLUME: ""
#HISPEED 00
#MEASUREHS 00
#02012:00130000
#02017:0000001300000000
#0201b:13
#02216:0013
#02212:00000013
#02315:0013000000130000
#02318:1313
#0231b:00130013
#02312:00130000
#0101a:00140014
#0101b:0012000000120000
#01016:00120012
#01812:1300000000130000
#01815:0000000000000013
#0181b:0013
#01818:00000013
#01718:00000013
#0171b:13
#01712:00130000
#01715:0000000013000013
#01717:00130000
#0641b:00131300
#06415:0000001300130000
#06417:0000000000000013
#06412:26000013
#06419:23
#06410:41
#0801a:00121200
#08016:0000001200120000
#08012:12000012
#08018:0000000000000012
#08114:0012001200001200
#08118:0000120000120000
#0811c:0012
#0811a:0000000000000012
#01213:0012000000120000
#01212:00140014
#01218:00120012
#01313:0012000000120000
#01312:00140014
#01318:00120012
#01413:0012000000120000
#01412:00140014
#0141a:00120012
#0081b:0012000000120000
#0081a:00140014
#00814:00120012
#0091b:0012000000120000
#0091a:00140014
#00914:00120012
#0111a:00140014
#0111b:0012000000120000
#01116:00120012
#02416:1400000000130000
#0241b:00001313
#02412:00130000
#02419:0000000000000033
#0361a:12
#03618:0000120000120000
#03614:5212
#0361f:11
#04917:1212121212120000
#04916:00140014001400140014001400000000
#0491a:00000014
#0651b:0013001300000000
#06515:00131300
#06519:2300000000130000
#06512:00000013
#06517:0000000000000013
#06514:23
#06816:00130000
#0681b:0013001300000000
#06812:2313
#06815:0000000000130013
#06818:00000013
#06817:23
#0721b:00130013
#07215:2300001300000013
#07218:0013
#07212:0013000000131300
#07315:0013000000131300
#0731b:00130013
#07312:0000001300000013
#07318:2313
#07418:0013000013000000
#0741b:00130013
#07415:2300001300000013
#07412:0000130000131300
#07515:0013001300131300
#0751b:00130013
#07518:2313
#07512:0000130000000013
#0441c:1252520000000000
#04412:0000125252000000
#0441a:0000000012525200
#04414:0000000000001252
#04518:1252520000000000
#04516:0000125252000000
#0451a:0000000012525200
#04514:5200000000001252
#0211b:0013
#02117:00130000
#02116:0000000000130000
#05012:24130013
#0501b:00130013
#05015:0000000000130000
#0501f:21
#01513:1232323232320000
#0151a:00120000
#0151b:00000023
#05118:1300001300130000
#05115:0013000013000013
#05112:00130013
#0511b:00130013
#05110:41
#05218:13
#05212:00130013
#0521b:0000130000131300
#01612:00001313
#0161b:23130000
#01617:0000000000130000
#01616:24
#01610:41
#04012:00121212
#0401a:5212
#04018:00120000
#04014:12
#0411a:0000001200000012
#04112:12121212
#04118:0012000000120000
#0421c:12121212
#04216:00120000
#04214:1212
#0431c:12121212
#04316:0012000000120000
#04314:0000001200000012
#02515:00000013
#02512:13
#0251b:00130000
#02517:0013
#02516:00130000
#02518:0000000000000013
#02510:41
#02614:00000013
#0261b:1300000000130000
#02619:0000000000000013
#02612:0013
#02715:13
#02718:0013000000000000
#02714:00130000
#02719:0000001300000000
#02712:00001313
#0271b:0000000000131300
#0291b:00130000
#02916:0000000000130000
#02917:0013
#0281b:00130000
#02816:0000001300000000
#02812:00000013
#02817:0000000000000013
#03115:00131300
#0311b:0000001300000000
#03112:13
#03118:0013000000130000
#05916:1300000013130000
#05912:00130013
#0591b:0012121212121212
#0591a:00000014001400140014001400140014
#0601b:00130013
#06012:00130013
#06018:0013
#06015:0000000000130000
#06016:13
#06317:1300000013130000
#0631b:00130013
#06312:1232323232323232
#03218:12
#03216:0000120000120000
#0321a:0012
#03314:12120012
#0331a:0012000000000012
#03318:0000001200120000
#03312:0012
#03418:00120000
#03412:12
#03416:0012
#0341a:0000000000120000
#03410:41
#0351a:0012000000000000
#03512:00121200
#03518:0000001200120000
#03514:00000000000000000000000012005252
#03015:0000130000130000
#0301b:0000001313000000
#03018:0013000000001300
#03012:1300000000000013
#00318:16
#00218:16
#00118:16
#00018:16
#00712:16
#00612:16
#00512:16
#00412:16
#00410:41
#01912:00130000
#01918:1300001300130000
#01915:00001313
#04817:0013
#04812:6c
#05815:13
#0581b:0000130000131300
#05812:00130013
#05816:0013
#05818:23
#06218:13
#06212:0000130000131300
#0621b:00130013
#06217:0013
#06215:23
#06612:0013001300000000
#06618:00131300
#06614:2300000000130000
#06616:0000000000000013
#0661b:00000013
#06619:23
#06712:0013001300000000
#06718:00131300
#06714:2300000000130000
#06716:0000000000000013
#0671b:00000013
#06719:23
#06916:00130000
#0691b:0013001300000000
#06912:2313
#06915:0000000000130013
#06918:00000013
#06917:23
#07017:00130000
#07012:0013001300000000
#0701b:2313
#07018:0000000000130013
#07015:00000013
#07016:23
#07117:00130000
#07112:0013001300000000
#07118:0000000000130013
#07115:00000013
#0711b:2313
#07116:23
#07612:00130013
#07618:2300001300000013
#07615:0013
#0761b:0013000000131300
#07718:0013000000131300
#07712:00130013
#0771b:0000001300000013
#07715:2313
#05312:00130013
#05315:1300000013130000
#05319:0012121212120000
#05318:00000014001400140014001400000000
#0541b:00130013
#05412:00130013
#05418:0000000000130000
#0541a:24
#05515:1300001300130000
#05518:0013000013000013
#0551b:00130013
#05512:00130013
#05615:13
#0561b:00130013
#05612:0000130000131300
#0571b:00130013
#05718:1300000013130000
#05715:0012121212120000
#05714:00000014001400140014001400000000
#0611b:00130013
#06117:1300000013130000
#06113:0012121212120000
#06112:00000014001400140014001400000000
#0371a:12120012
#03714:0012000000000012
#03716:0000001200120000
#0371c:0012
#03816:00120000
#0381c:12
#03818:0012
#03814:0000000000120000
#03914:0012000000000000
#0391c:00121200
#03916:0000001200120000
#0391a:00000000000000000000000012005252
#07815:0013000013000000
#07812:00130013
#07818:2300001300000013
#0781b:0000130000131300
#0791b:0000133333333333
#07912:00130013
#07915:2300000013130000
#04612:00220000
#04618:00622200
#04616:00006222
#0461c:22000062
#04614:5200006200000062
#0461b:00620000000000000000006200000000
#0461a:0062000000620000
#04619:00000062000000000062000000000000
#04613:00000000006200000000000000000062
#04615:00000000000000620000000000620000
#0471c:2262626262626262626262626262626262626262626262000000000000000000
#04712:62
#0471b:0000000000000000000000000000000000000000000000630000000000000000
#0471a:00000064
#0471a:00000064
#04718:00000000000000000000000000660000
#04716:0000000000000068
#04714:0000000000000000000000000000006a
#04719:0000000000000000000000000000000000000000000000000065000000000000
#04713:000000000000000000000000000000000000000000000000000000000000006b
#04715:0000000000000000000000000000000000000000000000000000000000690000
#04717:0000000000000000000000000000000000000000000000000000006700000000
#01353:0022000000220000
#01352:00640064
#01453:0022000000220000
#01452:00640064
#01253:0022000000220000
#01252:00640064
#0085b:0022000000220000
#0085a:00540054
#0095b:0022000000220000
#0095a:00540054
#0105a:00640064
#0105b:0022000000220000
#0115a:00640064
#0115b:0022000000220000
#0175b:63
#01757:00230000
#02456:14
#02452:00530000
#0245b:00000053
#04957:6262626262620000
#04956:00640064006400640064006400000000
#0495a:00000044
#0725b:00130013
#0735b:00130013
#0745b:00130013
#0755b:00130013
#01553:22
#0165b:00630000
#01652:00000063
#01656:14
#02552:53
#02556:00230000
#02752:00000053
#0275b:00000063
#04852:1c
#0595b:0062626262626262
#0595a:00000064006400640064006400640064
#06352:22
#06452:16
#00058:56
#00158:56
#00258:56
#00358:56
#00752:66
#00652:66
#00552:66
#00452:66
#01958:53
#01955:00000063
#05052:34
#07652:00130013
#07752:00130013
#05359:0062626262620000
#05358:00000064006400640064006400000000
#05755:0052525252520000
#05754:00000054005400540054005400000000
#06153:0052525252520000
#06152:00000054005400540054005400000000
#07852:00130013
#0795b:00230000
#07952:00130013
#000380:16
#0003a0:000000000000000000000000000000000000000000000000000000000000000000000000000000000000000000000000000000000000000000000000000000000000000000000000000000000000000000000000000000000000000000000000000000000000000000000000000000000000000000000000000000000000000000000000000000000000000000000000000000000000000000000000000000000000000000000000000000000000000000000000000000000000000000000000000000000000000000000000000000000000000000000000000000000000000000000000000000000000000000000000000000000000000000000000000000000000000000000000000000000000000000000000000000000000000000000000000000000000000000000000000000000000000000000000000000000000000000000000000000000000000000000000000000000000000000000000000000000000000000000000000000000000000000000000000000000000000000000000000000000000000000000000000000000000000000000000000000000000000000000000000000000000000000000000000000000000000000000000000000000000000000000000000000000000000000000000000000000000000000000052
#001380:56
#0013a0:000000000000000000000000000000000000000000000000000000000000000000000000000000000000000000000000000000000000000000000000000000000000000000000000000000000000000000000000000000000000000000000000000000000000000000000000000000000000000000000000000000000000000000000000000000000000000000000000000000000000000000000000000000000000000000000000000000000000000000000000000000000000000000000000000000000000000000000000000000000000000000000000000000000000000000000000000000000000000000000000000000000000000000000000000000000000000000000000000000000000000000000000000000000000000000000000000000000000000000000000000000000000000000000000000000000000000000000000000000000000000000000000000000000000000000000000000000000000000000000000000000000000000000000000000000000000000000000000000000000000000000000000000000000000000000000000000000000000000000000000000000000000000000000000000000000000000000000000000000000000000000000000000000000000000000000000000000000000000000000052
#002380:56
#0023a0:000000000000000000000000000000000000000000000000000000000000000000000000000000000000000000000000000000000000000000000000000000000000000000000000000000000000000000000000000000000000000000000000000000000000000000000000000000000000000000000000000000000000000000000000000000000000000000000000000000000000000000000000000000000000000000000000000000000000000000000000000000000000000000000000000000000000000000000000000000000000000000000000000000000000000000000000000000000000000000000000000000000000000000000000000000000000000000000000000000000000000000000000000000000000000000000000000000000000000000000000000000000000000000000000000000000000000000000000000000000000000000000000000000000000000000000000000000000000000000000000000000000000000000000000000000000000000000000000000000000000000000000000000000000000000000000000000000000000000000000000000000000000000000000000000000000000000000000000000000000000000000000000000000000000000000000000000000000000000000000052
#003380:56
#0043a0:22
#004321:16
#004341:000000000000000000000000000000000000000000000000000000000000000000000000000000000000000000000000000000000000000000000000000000000000000000000000000000000000000000000000000000000000000000000000000000000000000000000000000000000000000000000000000000000000000000000000000000000000000000000000000000000000000000000000000000000000000000000000000000000000000000000000000000000000000000000000000000000000000000000000000000000000000000000000000000000000000000000000000000000000000000000000000000000000000000000000000000000000000000000000000000000000000000000000000000000000000000000000000000000000000000000000000000000000000000000000000000000000000000000000000000000000000000000000000000000000000000000000000000000000000000000000000000000000000000000000000000000000000000000000000000000000000000000000000000000000000000000000000000000000000000000000000000000000000000000000000000000000000000000000000000000000000000000000000000000000000000000000000000000000000000000052
#005321:56
#005341:000000000000000000000000000000000000000000000000000000000000000000000000000000000000000000000000000000000000000000000000000000000000000000000000000000000000000000000000000000000000000000000000000000000000000000000000000000000000000000000000000000000000000000000000000000000000000000000000000000000000000000000000000000000000000000000000000000000000000000000000000000000000000000000000000000000000000000000000000000000000000000000000000000000000000000000000000000000000000000000000000000000000000000000000000000000000000000000000000000000000000000000000000000000000000000000000000000000000000000000000000000000000000000000000000000000000000000000000000000000000000000000000000000000000000000000000000000000000000000000000000000000000000000000000000000000000000000000000000000000000000000000000000000000000000000000000000000000000000000000000000000000000000000000000000000000000000000000000000000000000000000000000000000000000000000000000000000000000000000000052
#006321:56
#006341:000000000000000000000000000000000000000000000000000000000000000000000000000000000000000000000000000000000000000000000000000000000000000000000000000000000000000000000000000000000000000000000000000000000000000000000000000000000000000000000000000000000000000000000000000000000000000000000000000000000000000000000000000000000000000000000000000000000000000000000000000000000000000000000000000000000000000000000000000000000000000000000000000000000000000000000000000000000000000000000000000000000000000000000000000000000000000000000000000000000000000000000000000000000000000000000000000000000000000000000000000000000000000000000000000000000000000000000000000000000000000000000000000000000000000000000000000000000000000000000000000000000000000000000000000000000000000000000000000000000000000000000000000000000000000000000000000000000000000000000000000000000000000000000000000000000000000000000000000000000000000000000000000000000000000000000000000000000000000000000052
#007321:56
#008341:22
#0083b0:1232003232320032
#0083a0:00340034
#0093b0:3232003232320032
#0093a0:00340034
#0103b0:3232003232320032
#0103a0:00340034
#0113b0:3232003232320032
#0113a0:00340034
#0123b0:22
#012331:1232003232320032
#012321:00340034
#013331:3232003232320032
#013321:00340034
#014331:3232003232320032
#014321:00340034
#015331:3232323232320000
#015321:00000028
#0163b1:00130000
#016371:0023
#016321:00000013
#017361:23
#0173b0:1323
#017370:00530000
#018380:13230000
#018351:00132300
#019381:13
#0193b1:00230000
#019351:00000013
#020321:23
#020321:0013
#020361:00000023
#0203b0:00000013
#0213b0:23
#021361:1323
#021321:00330000
#0213b1:00000013
#022371:23
#022320:13230000
#022371:00130023
#0223b1:0033
#023321:00000013
#024321:23
#024321:00130000
#024361:0023
#0243b1:00000013
#024391:0000000000000033
#025371:23
#025320:1323
#025360:00530000
#026350:13230000
#026381:00132300
#027321:00000013
#028351:23
#0273b0:00000013
#028380:23
#0283b0:0013
#028370:00000023
#029320:1323
#029360:00330000
#0293b0:00000013
#0303b0:23
#031320:00000013
#032320:23
#032380:00000012
#033380:22
#034340:00000012
#035340:0022000000000000
#036360:00000012
#037360:22
#0383a0:00000012
#0393a0:0022000000000000
#0403a0:0000000000123200
#0413a0:22
#042340:0000000000123200
#043340:22
#048320:000000000000135353535353230000000000000000000000
#048330:000000000000000000000000005300530053005300530053000000000000000000000000000000000000000000000000
#0483b0:000000000000000000000000000000000000135353535353
#0483a0:000000000000000000000000000000000000000000000000000000000000000000000000005300530053005300530053
#0493b0:23
#049371:1232323232322200
#049361:00540054005400540054005400000000
#050381:0000000013230000
#052351:0000000013230000
#053391:0012323232322200
#053381:00000054005400540054003400000000
#054351:0000000013230000
#056381:0000000013230000
#057351:0012323232322200
#057341:00000054005400540054003400000000
#0593b1:0012323232323232
#0593a1:00000054005400540054005400540054
#0603b1:22
#061331:0012323232322200
#061321:00000054005400540054003400000000
#063321:1232323232323232
#064321:26
#0793b1:1333333333333333
#080351:29
#035940:00000012
#036940:22
#0399a0:00000012
#0409a0:22
#0449c0:12220000
#044921:00122200
#0449a0:00001222
#044941:00000012
#045941:22
#045980:12220000
#045961:00122200
#0459a0:00001222
#045941:00000012
#046941:22
#0469c0:12
#046980:00220000
#046921:00120000
#046961:0022
#046980:0012
#0469c0:00000022
#046961:00000012
#047921:22
#0479c0:1200000000000000000000000000000052525252000052000000000000000000
#048920:2c
