This file was generated by Ched 2.7.0.0.
#TITLE ""
#ARTIST ""
#DESIGNER ""
#DIFFICULTY 0
#PLAYLEVEL
#SONGID ""
#WAVE ""
#WAVEOFFSET 0
#JACKET ""
#REQUEST "ticks_per_beat 480"
#00002: 4
#BPM01: 199
#00008: 01
#TIL00: ""
#VOLUME: ""
#HISPEED 00
#MEASUREHS 00
#02014:0014001400140014
#02012:00120012
#02018:00121212
#0201c:22
#0081c:0012
#0081a:00120000
#00816:0000001200120000
#00812:00120012
#00818:56000012
#00814:12
#06412:2c00140000141400
#06416:0000001200000012
#06418:0000120000120000
#0641a:0000000012000012
#0641c:00000012
#06410:41
#03216:00121200
#0321c:0012
#03214:0000000000120000
#0321a:00120000
#03218:00000012
#03212:12
#0331a:1200001200000000
#03316:0012000012000000
#03312:0000120000120000
#03318:00000012
#0331c:0000000000000012
#03414:12120000
#0341c:0012
#03412:0012
#03418:12120000
#0341a:0000000000120000
#03416:00000012
#03410:41
#03514:0000120000120000
#03512:0000001200001200
#03516:0012000012000012
#03518:00000000000000000000000000000012
#06512:0000140000141400
#06516:0012001200000012
#0651a:0000000012000012
#06518:2600120000120000
#0651c:00000012
#06612:0000140000141400
#06616:2800001200000012
#0661c:00000012
#06618:0012000012000000
#0661a:0000120000120012
#0721b:0013130000131300
#07212:24130013
#07217:0012
#07215:0012001200120012
#07219:00000000000000120000000000000000
#0581b:00130013
#05812:23131313
#05815:00000000000000130000000000001300
#05818:1313001300130000
#0591b:1313
#05917:0013130000131300
#05912:0012121212121212
#00912:00120012
#00916:1200001200120000
#0091c:0012
#00918:0012000000001200
#0091a:00120000
#01512:12121222
#04014:00120000
#04016:0012
#04012:0000000000121200
#0401c:0000125200001252
#0401a:1252000012520000
#06012:00130013
#0601b:1300131300001300
#06018:00000000000000130000000000001300
#06015:1313000013130000
#06112:1313
#06116:0013130000131300
#0611c:0012121212121200
#0781b:0013130000000000
#07819:0000001200000000
#07818:0000000000120012
#07812:2400120000131300
#0781c:00000012
#07816:1412001214000000
#07815:0000000000000012
#0781a:0024
#0761b:0013130000131300
#07617:0000121200000000
#07619:0000000012000012
#07612:2400001313001200
#07615:0012000000120012
#07616:14
#08017:0000001200120000
#08012:13000012
#08015:0000000000000012
#0801c:12121200
#08019:0000000000000012
#08115:0012000000000012
#08117:0000001200120000
#08112:00000012
#08119:0000000000000012
#0811c:00121200
#06712:0000140000141400
#06716:0000001200000012
#0671c:00000012
#06718:0012000012000000
#0671a:0000120000120012
#06714:2a
#0421a:12120000
#04218:0012
#0421c:0000000000121200
#04212:0000125200001252
#04214:1252000012520000
#0411c:0000125200001252
#0411a:1252000012520000
#04116:1200001200000012
#04112:0012000000000000
#04114:0000000000120000
#0101c:00120012
#01018:0000001200120000
#01012:0012
#0101a:12
#01014:00120000
#01016:00000012
#01118:1200001200120000
#0111c:00120012
#01112:0012
#01116:0012000000001200
#01114:00120000
#01312:1200001200000000
#01314:00120012
#01318:1200001200001200
#0131c:0012
#01316:0000000000120000
#0131a:00120000
#03618:00121200
#03612:0012
#0361a:0000000000120000
#03614:12120000
#03616:00000012
#0361f:11
#03714:1200001200000000
#03718:0012000012000000
#0371c:0000120000120000
#03716:00000012
#03712:0000000000000012
#0381a:12120000
#03812:0012
#0381c:0012
#03816:12120000
#03814:0000000000120000
#03818:00000012
#04312:0000125200001252
#04314:1252000012520000
#0431c:0012000000000000
#04318:0000001200000012
#0431a:0000000000120000
#04418:1252520000000000
#04414:0012125252000000
#0441a:0000001212525200
#04412:0000000000121252
#0441c:0000000000000012
#0451c:1252520000000012
#04514:0012125252000000
#0451a:0000001212525200
#04516:0000000000121252
#04512:52
#04917:1212121212121700
#04816:68140014
#04812:0018
#0541b:00130013
#05416:00130000
#05414:0013000000000000
#05412:1300001300001300
#05418:00000000000000130000000000001300
#05415:0000000013130000
#05417:27
#05512:0012121212121212
#0551b:0013130000001300
#05517:0013
#05518:0000000000000013
#05515:13
#05519:0000000000130000
#05716:00130013
#0571c:0012121212121200
#05712:1313
#05714:0013000000130000
#05718:13
#05615:1313001313130013
#05618:00000000130000130000000000000000
#05612:00130013
#0561b:1300000000131300
#06315:1212121200000000
#0631c:12
#06317:0000000022222222
#0681a:0000140000141400
#06818:0012001200000012
#06816:0000120000120000
#06814:0000000012000012
#06812:2c000012
#0691a:0000140000141400
#06918:0012001200000012
#06914:0000000012000012
#06916:0000120000120000
#06912:2a000012
#0701a:0000140000141400
#07018:0000001200000012
#07012:28000012
#07016:0012000012000000
#07014:0000120000120012
#0711a:0000140000141400
#07118:0000001200000012
#07112:26000012
#07116:0012000012000000
#07114:0000120000120012
#0391a:0000120000120000
#0391c:0000001200001200
#03918:0012000012000012
#03916:00000000000000000000000000000012
#05012:27130013
#05017:00130000
#05019:0013000000000000
#0501b:1300001300001300
#05015:00000000000000130000000000001300
#05018:0000000013130000
#0501f:21
#0511c:0012121212121212
#05112:0013130000001300
#05116:0013
#05115:0000000000000013
#05118:13
#05114:0000000000130000
#05110:41
#05317:00130013
#05312:0012121212121200
#0531b:1313
#05319:0013000000130000
#05315:13
#05218:1313001313130013
#05215:00000000130000130000000000000000
#0521b:00130013
#05212:1300000000131300
#0791b:00130013
#07915:00001300001300130000000000140014
#07918:00130013000013000000000000000000
#07919:0000000000000015
#07912:2400000013150000
#07917:00000000000000000014001400000000
#0141a:00120012
#01416:1200001200001200
#01412:0012
#01418:0000000000120000
#01414:0000120000000012
#0141c:1200001200000000
#06212:00130013
#0621b:23131313
#06218:00000000000000130000000000001300
#06215:1313001300130000
#0731b:0013130000131300
#07312:24130013
#07315:0012
#07317:0012001200120012
#07319:00000000000000120000000000000000
#07712:0013130000131300
#07717:0000121200000000
#07715:0000000012000012
#0771c:00000012
#0771b:0000001313000000
#07719:0012000000120012
#07716:14
#0771a:24
#07412:0013130000131300
#0741b:00130013
#07417:0012
#07419:0012001200120012
#07415:00000000000000120000000000000000
#0741a:24
#07512:0013130000131300
#0751b:00130013
#07519:0012
#07517:0012001200120012
#07515:00000000000000120000000000000000
#0751a:24
#01616:00120014
#01612:2600000012120000
#01618:16
#01610:41
#01712:12
#01718:00120000
#0171c:0000000012120000
#01716:00000014
#01918:00120000
#0191c:0000000012120000
#01916:00000014
#01912:12
#02116:0014001400140014
#02114:00120012
#0211a:00121212
#0211c:22
#02214:0014001400140014
#02212:00120012
#02218:00121212
#0221c:22
#02316:0014001400140000
#0231a:00120012
#02314:0012
#0231c:22
#0181c:12
#01816:00120014
#01812:0000000012120000
#02718:0012
#0271a:0000000000120000
#02714:0012000000000000
#02716:12140014
#02818:0014001400140014
#0281c:00120012
#02816:00121212
#02812:22
#02916:0014001400140014
#0291a:00120012
#02914:00121212
#02912:22
#03018:0014001400140014
#0301c:00120012
#03016:00121212
#03012:22
#03116:0014001400140000
#03114:00120012
#0311a:0012
#03112:22
#02412:00120012
#02416:0000000012120000
#02418:26
#02516:12
#0251c:00120012
#02518:0000000012120000
#02510:41
#02612:00120012
#02616:0000000012120000
#02618:12
#01216:1200001200001200
#0121c:1200001200000000
#01214:00120000
#0121a:00120012
#01218:0000000000120000
#01212:0012
#0461c:22
#04616:52000000000000000000640000000065
#04614:00000000000000000000000000650000
#04615:00000000000000000000006400006500
#0461b:00620000000000000000000000000000
#0461a:00006200000000630000000000000000
#04619:00000062000063000000000000000000
#04618:00000000006300006400000000000000
#04617:00000000630000000064000000000000
#04613:00000065
#00410:41
#00412:56
#00419:0055000000000055
#0041a:00540054
#0041b:0000005300530000
#0041c:0052
#00418:56
#00012:5655545352535455
#00112:5655545352535455
#00212:5655545352535455
#00312:5655545352535455
#00518:56
#00519:0055000000000055
#0051a:00540054
#0051b:0000005300530000
#0051c:0052
#00618:56
#00619:0055000000000055
#0061a:00540054
#0061b:0000005300530000
#0061c:0052
#00718:56
#00719:0055000000000055
#0071a:00540054
#0071b:0000005300530000
#0071c:0052
#04714:0065000000650000006500000065000000000065000066000000670000006700
#04713:0000650065000000000065006500000000000000006600000000006700670000
#04712:0000006500000000000000650000000000000000660000000000000067000000
#04715:6500000000006500650000000000650000006500000000660067000000000067
#04716:0000000000000065000000000000006500650000000000006700000000000000
#04717:0065
#0725b:00130013
#0785b:00130000
#07852:00000013
#02058:00000012
#02052:00120000
#0765b:00130013
#04856:48
#04852:0038
#04957:00000047
#05052:37
#06452:1c
#0635c:52
#0735b:00130013
#07752:00130013
#07452:00130013
#07552:00130013
#02154:00120000
#0215a:00000012
#02252:00120000
#02258:00000012
#02452:36
#02458:46
#01658:46
#01652:36
#0285c:00120000
#02856:00000012
#0295a:00120000
#02954:00000012
#0305c:00120000
#03056:00000012
#0235a:00420042
#02354:0032
#03154:00320032
#0315a:0042
#0153c0:12
#015340:0000002a
#016380:00122200
#0163c0:00000012
#0173c0:22
#017360:00122200
#017320:00000012
#018320:22
#018380:00122200
#0183c0:00000012
#0193c0:22
#019360:00122200
#019320:00000012
#020320:22
#023340:0000122200000000
#023340:000000000000000000000000000000000000000000000000000000000000000000000000000000000000000000000000000000000000000000000000000000000000000000000000000000000000000000000000000000000000000000000000000000000000000000000000000000000000000000000000000000000000000000000000000000000000000000000000000000000000000000000000000000000000000000000000000000000000000000000000000000000000000000000000000000000000000000000000000000000000000000000000000000000000000000000000000000000000000000000000000000000000000000000000000000000000000000000000000000000000000000000000000000000000000000000000000000000000000000000000000000000000000000000000000000000000000000000000000000000000000000000000000000000000000000000000000000000000000000000000000000000000000000000000000000000000000000000000000000000000000000000000000000000000000000000000000000000000000000000000000000000000000000000000000000000000000000000000000000000000000000000000000000000000000000000000000000000000000000000000000000000000000000000000000000000000000000000000000000000000000000000000000000000000000000000000000000000000000000000000000000000000000000000000000000000000000000000000000000000000000000000000000000000000000000000000000000000000000000000000000000000000000000000000000000000000000000000000000000000000000000000000000000000000000000000000000000000000000000000000000000000000000000000000000000000000000000000000000000000000000000000000000000000000000000000000000000000000000000000000120000000000000000000000000000000000000000000000000000000000000000000000000000000000000000000000000000000000000000000000000000000000000000000000000000000000000000000000000000000000000000000000000000000000000000000000000000000000000000000000000000000000000000000000000000000000000000000000000000000000000000000000000000000000000000000000000000000000000000000000000000000000000000000000000000000000000000000000000000000000000000000000000000000000000000000000000000000000000000000052
#024320:26
#0243c0:00122200
#024380:00000012
#025380:22
#025320:00122200
#025360:00000012
#026360:22
#0263c0:00122200
#026380:00000012
#027380:22
#027320:00122200
#0273c0:00000012
#0283c0:22
#0313a0:0000122200000000
#0313a0:00000012
#0323a0:22
#032320:00000012
#033320:22
#034380:00000012
#035380:00000022
#0363c0:00000012
#0373c0:22
#038360:00000012
#039360:00000022
#0483b0:000000000000135353000053230000000000000000000000
#0483a0:000000000000000000000000005300530000530053000053000000000000000000000000000000000000000000000000
#048390:000000000000000000000000000000000053000000530000000000000000000000000000000000000000000000000000
#048380:000000000000000000000000000000000000005300000000000000000000000000000000000000000000000000000000
#048320:000000000000000000000000000000000000135353000053
#048330:000000000000000000000000000000000000000000000000000000000000000000000000005300530000530053000053
#048340:000000000000000000000000000000000000000000000000000000000000000000000000000000000053000000530000
#048350:000000000000000000000000000000000000000000000000000000000000000000000000000000000000005300000000
#049320:23
#0633c0:12
#064320:2c
#000920:16545553545253515251535254535554
#001920:56545553545253515251535254535554
#002920:56545553545253515251535254535554
#003920:56545553545253515251535254535554
#004920:26
#004981:16
#0049a1:00540000540000000000000054000054
#004991:0055000000000055
#0049b1:00000053000053000000530000530000
#0049c1:00000000005200005200005200000000
#0049d1:00000000000000510051000000000000
#005981:56
#0059a1:00540000540000000000000054000054
#005991:0055000000000055
#0059b1:00000053000053000000530000530000
#0059c1:00000000005200005200005200000000
#0059d1:00000000000000510051000000000000
#006981:56
#0069a1:00540000540000000000000054000054
#006991:0055000000000055
#0069b1:00000053000053000000530000530000
#0069c1:00000000005200005200005200000000
#0069d1:00000000000000510051000000000000
#007981:56
#0079a1:00540000540000000000000054000054
#007991:0055000000000055
#0079b1:00000053000053000000530000530000
#0079c1:00000000005200005200005200000000
#0079d1:00000000000000510051000000000000
#008981:26
#0409a1:1222000000000000
#0409c1:0000122200000000
#0409a1:0000000012220000
#0409c1:0000000000001222
#0419a1:1222000000000000
#0419c1:0000122200000000
#0419a1:0000000012220000
#0419c1:0000000000001222
#042941:1222000000000000
#042921:0000122200000000
#042941:0000000012220000
#042921:0000000000001222
#043941:1222000000000000
#043921:0000122200000000
#043941:0000000012220000
#043921:0000000000001222
#044981:12220000
#044940:00122200
#0449a1:00001222
#044920:00000012
#045920:22
#0459c1:12220000
#045940:00122200
#0459a1:00001222
#045960:00000012
#046960:22
#0469c1:12
#046981:000000000000000000000000000000000000000000000000000000000000000000000000000000000000000000000000000000000000000000000000000000000000000000000000000000000000000000000000000000000000000000000000000000000000000000000000000000000000000000000000000000000000000000000000000000000000000000000000000000000000000000000000000000000000000000000000000000000000000000000000000000000000000000000000000000000000000000000000000000000000000000000000000000000000000000000000000000000000000000000000000000000000000000000000000000000000000000000000000000000000000000000000000000000000000000000000000000000000000000000000000000000000000000000000000000000000000000000000000000000000000000000000000000000000000000000000000000000000000000000000000000000000000000000000000000000000000000000000000000000000000000000000000000000000000000000000000000000000000000000000000000000000000000000000000000000000000000000000000000000000000000000000000000000000000000000000000000000000000000000052000000000000000000000000000000000000000000000000000000000000000000000000000000000000000000000000000000000000000000000000000000000000000000000000000000000000000000000000000000000000000000000000000000000000000000000000000000000000000000000000000000000000000000000000000000000000000000000000000000000000000000000000000000000000000000000000000000000000000000000000000000000000000000000000000000000000000000000000000000000000000000000000000000000000000000000000000000000000000000000000000000000000000000000000000000000000000000000000000000000000000000000000000000000000000000000000000000000000000000000000000000000000000000000000000000000000000000000000000000000000000000000000000000000000000000000000000000000000000000000000000000000000000000000000000000000000000000000000000000000000000000000000000000000000000000000000000000000000000000000000000000000000000000000000000000000000000000000000000000000000000000000000000000000000000000000000000000000000000000000000540000000000000000000000000000000000000000000000000000000000000000000000000000000000000000000000000000000000000000000000000000000000000000000000000000000000000000000000000000000000000000000000000000000000000000000000000000000000000000000000000000000000000000000000000000000000000000000000000000000000000000000000000000000000000000000000000000000000000000000000000000000000000000000000000000000000000000000000000000000000000000000000000000000000000000000000000000000000000000000000000000000000000000000000000000000000000000000000000000000000000000000000000000000000000000000000000000000000000000000000000000000000000000000000000000000000000000000000000000000000000000000000000000000000000000000000000000000000000000000000000000000000000000000000000000000000000000000000000000000000000000000000000000000000000000000000000000000000000000000000000000000000000000000000000000000000000000000000000000000000000000000000000000000000000000000000000000000000000000000000000000000000000000000000000000000000000000000000000000000000000000000000000000000000000000000000000000000000000000000000000000000000000000000000000000000000000000000000000000000000000000000000000000000000000000000000000000000000000000000000000000000000000000000000000000000000000000000000000000000000000000000000000000000000000000000000000000000000000000000000000000000000000000000000000000000000000000000000000000000000000000000000000000000000000000000000000000000000000000000000000000000000000000000000000000000000000000000000000000000000000000000000000000000000000000000000000000000000000000000000000000000000000000000000000000000000000000000000000000000000000000000000000000000000000000000000000000000000000000000000000000000000000000000000000000000000000000000000000000000000000000000000000000000000000000000000000000000000000000000000000000000000000000000000000000000000000000000000000000000000000000000000000000000000000000000000000000000000000000000000
#046971:00530000
#0469a1:00000000000000530000000000000000
#046991:000000000000000000000000000000000000000000000000000000000000000000000000000000000000000000000000000000000000000000000000000000000000000000000000000000000000000000000000000000000000000000000000000000000000000000000000000000000000000000000000000000000000000000000000000000000000000000000000000000000000000000000000000000000000000000000000000000000000000000000000000000000000000000000000000000000000000000000000000000000000000000000000000000000000000000000000000000000000000000000000000000000000000000000000000000000000000000000000000000000000000000000000000000000000000000000000000000000000000000000000000000000000000000000000000000000000000000000000000000000000000000000000000000000000000000000000000000000000000000000000000000000000000000000000000000000000000000000000000000000000000000000000000000000000000000000000000000000000000000000000000000000000000000000000000000000000000000000000000000000000000000000000000000000000000000000000000000000000000000000000000000000000000000000000000000000000000000000000000000000000000000000000000000000000000000000000000000000000000000000000000000000000000000000000000000000000000000000000000000000000000000000000000000000000000000000000000000000000000000000000000000000000000000000000000000000000000000000000000000000000000000000000000000000000000000000000000000000000000000000000000000000000000000000000000000000000000000000000000000000000000000000000000000000000000000000000000000000000000000000000000000000000000000000000000000000000000000000000000000000000000000000000000000000000000000000000000000000000000000000000000000000000000000000000000000000000000000000000000000000000000000000000000000000000000000000000000000000000000000000000000000000000000000000000000000000000000000000000000000000000000000000000000000000000000000000000000000000000000000000000000000000000000000000000000000000000000000000000000000000000000000000000000000000000000000000000000000000000000000000053000000000000000000000000000000000000000000000000000000000000000000000000000000000000000000000000000000000000000000000000000000000000000000000000000000000000000000000000000000000000000000000000000000000000000000000000000000000000000000000000000000000000000000000000000000000000000000000000000000000000000000000000000000000000000000000000000000000000000000000000000000000000000000000000000000000000000000000000000000000000000000000000000000000000000000000000000000000000000000000000000000000000000000000000000000000000000000000000000000000000000000000000000000000000000000000000000000000000000000000000000000000000000000000000000000000000000000000000000000000000000000000000000000000000000000000000000000000000000000000000000000000000000000000000000000000000000000000000000000000000000000000000000000000000000000000000000000000000000000000000000000000000000000000000000000000000000000000000000000000000000000000000000000000000000000000000000000000000000000000000000000000000000000000000000000000000000000000000000000000000000000000000000000000000000000000000000000000000000000000000000000000000000000000000000000000000000000000000000000000000000000000000000000000000000000000000000000000000000000000000000000000000000000000000000000000000000000000000000000000000000000000000000000000000000000000000000000000000000000000000000000000000000000000000000000000000000000000000000000000000000000000000000000000000000000000000000000000000000000000000000000000000000000000000000000000000000000000000000000000000000000000000000000000000000000000000000000000000000000000000000000000000000000000000000000000000000000000000000000000000000000000000000000000000000000000000000000000000000000000000000000000000000000000000000000000000000000000000000000000000000000000000000000000000000000000000000000000000000000000000000000000000000000000000000000000000000000000000000000000000000000000000000000000000000000000000000000000000000000000000
#046951:00000000000000000000005400000000
#046941:000000000000000000000000000000000000000000000000000000000000000000000000000000000000000000000000000000000000000000000000000000000000000000000000000000000000000000000000000000000000000000000000000000000000000000000000000000000000000000000000000000000000000000000000000000000000000000000000000000000000000000000000000000000000000000000000000000000000000000000000000000000000000000000000000000000000000000000000000000000000000000000000000000000000000000000000000000000000000000000000000000000000000000000000000000000000000000000000000000000000000000000000000000000000000000000000000000000000000000000000000000000000000000000000000000000000000000000000000000000000000000000000000000000000000000000000000000000000000000000000000000000000000000000000000000000000000000000000000000000000000000000000000000000000000000000000000000000000000000000000000000000000000000000000000000000000000000000000000000000000000000000000000000000000000000000000000000000000000000000000000000000000000000000000000000000000000000000000000000000000000000000000000000000000000000000000000000000000000000000000000000000000000000000000000000000000000000000000000000000000000000000000000000000000000000000000000000000000000000000000000000000000000000000000000000000000000000000000000000000000000000000000000000000000000000000000000000000000000000000000000000000000000000000000000000000000000000000000000000000000000000000000000000000000000000000000000000000000000000000000000000000000000000000000000000000000000000000000000000000000000000000000000000000000000000000000000000000000000000000000000000000000000000000000000000000000000000000000000000000000000000000000000000000000000000000000000000000000000000000000000000000000000000000000000000000000000000000000000000000000000000000000000000000000000000000000000000000000000000000000000000000000000000000000000000000000000000000000000000000000000000000000000000000000000000000000000000000000000000000000000000000000000000000000000000000000000000000000000000000000000000000000000000000000000000000000000000000000000000000000000000000000000000000000000000000000000000000000000000000000000000000000000000000000000000000000000000000000000000000000000000000000000000000000000000000000000000000000000000000000000000000000000000000000000000000000000000000000000000000000000000000000000000000000000000000000000000000000000000000000000000000000000000000000000000000000000000000000000000000000000000000000000000000000000000000000000000000000000000000000000000000000000000000000000000000000000000000000000000000000000000000000000000000000000000000000000000000000000000000000000000000000000000000000000000000000000000000000000000000000000000000000000000000000000000000000000000000000000000000000000000000000000000000000000000000000000000000000000000000000000000000000000000000000000000000000000000000000000000000000000000000000000000000000000000000000000000000000000000000054000000000000000000000000000000000000000000000000000000000000000000000000000000000000000000000000000000000000000000000000000000000000000000000000000000000000000000000000000000000000000000000000000000000000000000000000000000000000000000000000000000000000000000000000000000000000000000000000000000000000000000000000000000000000000000000000000000000000000000000000000000000000000000000000000000000000000000000000000000000000000000000000000000000000000000000000000000000000000000000000000000000000000000000000000000000000000000000000000000000000000000000000000000000000000000000000000000000000000000000000000000000000000000000000000000000000000000000000000000000000000000000000000000000000000000000000000000000000000000000000000000000000000000000000000000000000000000000000000000000000000000000000000000000000000000000000000000000000000000000000000000000000000000000000000000000000000000000000000000000000000000000000000000000000000000000000000000000000000000000000
#046931:00000055
#046961:00000000000000000000000000000025
