This file was generated by Ched 2.7.0.0.
#TITLE ""
#ARTIST ""
#DESIGNER ""
#DIFFICULTY 0
#PLAYLEVEL
#SONGID ""
#WAVE ""
#WAVEOFFSET 0
#JACKET ""
#REQUEST "ticks_per_beat 480"
#00002: 4
#BPM01: 166
#00008: 01
#TIL00: ""
#VOLUME: ""
#HISPEED 00
#MEASUREHS 00
#0451f:11
#04518:00130000
#04515:1300001313000000
#0451b:1313
#04512:00000013
#0641a:0014000014001400
#06412:14140000
#06416:0000001400000014
#02218:1300001300000000
#02215:00130013
#0221b:0013
#02212:0013000000000033
#02115:1300003300000013
#0211b:0013
#02112:00130000
#02118:00000013
#05518:0000130013000013
#05515:1300001300001300
#05512:00130000
#0551b:0000001300000000
#06616:0000140014000014
#0661a:24140014
#06612:2414
#06614:0034003400000000
#06516:0000140014000014
#06512:24140014
#0651a:2414
#06518:0034003400000000
#06312:14140000
#0631a:00001414
#06316:0000001400000014
#06310:41
#0621a:0000001400001400
#06216:0000000014000014
#06214:00140000
#06218:0014000000000000
#06212:24
#06114:0014000000001400
#06116:0014
#06118:0000140000000014
#06112:0000001400000000
#0611a:24
#05218:00000000000000000014001400000000
#05214:0000000024142400
#05219:0000001400000000
#0521a:0014000000000000
#05212:24
#05213:00240000
#05114:00002414
#05112:24140000
#05118:0000000000140014
#0511a:0014001400000000
#0501a:24141414
#05018:0000000000000013
#05015:00000013
#04912:24141414
#04918:00000013
#04915:0000000000000013
#03312:14141414
#03315:0000000000000013
#03318:00000013
#0341a:14141414
#03418:0000000000000013
#03415:00000013
#03618:0014001400140000
#03614:24242400
#03612:00000024
#0361a:00000024
#03512:24142414
#0351a:0014001400140014
#03510:41
#03218:0000000000000013
#03215:00000013
#03115:0000130000000013
#03118:0000001300001300
#0311b:00130000
#03112:0000001300000000
#0131b:13
#01315:1300000000000013
#01318:00130013
#01312:00130000
#02812:1313
#02818:0000130000000013
#0281b:1313
#02815:0013001300001300
#02712:00001313
#0271b:13131300
#02715:0013001300000000
#02718:0000000000130013
#02018:1300001300001300
#02015:1300001300000000
#02014:00130000
#02013:0013000000000000
#02019:00130000
#0201a:0013000000000000
#0201b:0000000000000033
#02318:1300003300000013
#02312:0013
#0231b:00130000
#02315:00000013
#04212:1313
#04215:0000000000000013
#04218:00000000005300000000000013000000
#0421b:0013000053000000
#0421a:00000053000000530000000000000000
#04219:0000535300000000
#0431b:0013000000000000
#04315:0000000000130013
#04318:00001313
#04312:1300001300000000
#04317:00530000
#04319:00000053000000000000000000000000
#03912:0013000000000000
#03918:0000000000130013
#03915:00001313
#0391b:1300001300000000
#03916:00530000
#03914:00000053000000000000000000000000
#03816:0013000000000000
#03812:00531300
#03818:00000013
#03815:0000000000000013
#0381b:1300001300000000
#03814:00000053000000000000000000000000
#04815:00130000
#04818:1300001313000000
#04812:1313
#0481b:00000013
#04718:00130000
#04715:1300001313000000
#0471b:1313
#04712:00000013
#04615:00130000
#04618:1300001313000000
#04612:1313
#0461b:00000013
#01615:00130013
#01618:0013000013000000
#01612:0000001300000000
#0161b:13
#05918:0013000000000013
#05912:00002313
#05915:0000001300130000
#0591b:23130000
#06018:0013001300000000
#06015:23130000
#06014:0000000000000000000000000000000000000013000000130000000000000000
#06013:00000000000000001313131323000000
#06013:00000023
#06012:0000000000000000000000000000000000130000001300000000000000000000
#06019:0000000000000000000000000000000000000013000000130000000000000000
#0601a:00000000000000001313131323000000
#0601a:00000023
#0601b:0000000000000000000000000000000000130000001300000000000000000000
#05815:0000000000000013
#05818:00000013
#0581b:13130000
#05817:0013
#05819:0000001300000000
#05816:00130000
#05814:0013000000000000
#05812:2323
#05712:13130013
#05717:00130013
#05719:0013000000000013
#05716:0013
#05714:0000001300000000
#0571b:2323
#05616:13000013
#05614:0000130000000013
#05619:00130000
#05617:0013
#05613:0000001300000000
#0561a:0013000000000000
#0561b:23000013
#05612:0023
#05417:13
#05419:00130000
#05414:00130000
#05416:0013
#0541a:0000001300000000
#05413:0013000000000000
#0541b:00002313
#05415:00000013
#05418:0000000000000013
#05412:2300000000000013
#05410:41
#05318:00000013
#05315:0000000000000013
#0531f:00210000
#0531b:2323
#05312:2323
#07118:00000013000000001300000000001300
#07112:13000013
#07115:0013130000130000
#0711b:1300001300001300
#07218:0013000013000000
#07215:1313
#07214:0000001300000000
#07212:00130023
#07219:0000001300000000
#0721b:00130023
#07012:0013
#0701b:0013
#07015:0000001300001300
#07018:0000130000000013
#06812:24001424
#06815:0000000000140000
#06818:0014001400000000
#06817:0000000000000014
#0681a:24002424
#06814:00240000
#06714:0000000000140014
#0671a:1424
#06718:0000001400002400
#06712:24242400
#03012:00001313
#03018:0013000000001300
#0301b:1300000000000013
#03015:0000001300000013
#02915:1300000000000013
#02918:13000013
#02912:0033133300000000
#0291b:0033133300000000
#01718:1300000000000013
#01712:13
#01715:00130013
#0171b:00130000
#01912:13130000
#0191b:13230000
#01913:0000003300000000
#01914:0033
#01915:0000000000333300
#01918:0000000000333300
#01919:0033
#0191a:0000003300000000
#01812:0013
#01815:1300001300001300
#01818:0000130000130013
#0181b:1313
#01518:0000001300000013
#01515:0000130000130000
#01512:1313
#0151b:13
#01510:41
#0141b:0013
#01418:1300001300001300
#01415:0000130000130013
#01412:1313
#04415:00130013
#04412:1313
#04418:0013001300000000
#0441b:1313
#0411b:1300000000000013
#04118:00131300
#04115:1300001300001300
#04018:00130013
#0401b:1313
#04015:0013001300000000
#04012:1313
#03715:00131300
#03712:2400000000000013
#03718:0000001300001300
#0371a:24
#02415:1300001300000033
#02412:00001313
#02418:00130013
#0241b:0013000000000033
#01218:00000013
#01212:0013
#01219:0013000000000000
#01214:00130000
#01216:13
#01217:0000001300000000
#0111b:0000130000000013
#01118:00000013
#01115:1300000000130000
#01112:0013
#0101b:13
#0101a:0000000000000013
#01014:00000013
#01019:0000000000130000
#01013:0013
#01018:0000001300000000
#01012:00130000
#00912:1313
#00915:0000130000000013
#00918:00000013
#0091b:13
#00815:00000013
#0081b:0013
#00814:0013000000000000
#00819:00130000
#00817:13
#00816:0000001300000000
#00712:0000130000000013
#00715:00000013
#00718:1300000000130000
#0071b:0013
#00612:13
#00613:0000000000000013
#00619:00000013
#00614:0000000000130000
#0061a:0013
#00615:0000001300000000
#0061b:00130000
#0051b:1313
#00518:0000130000000013
#00515:00000013
#00512:13
#00510:41
#0031a:0000001200000000
#00314:0012
#00318:0000000000000012
#00316:12
#00116:1212
#0011c:0000001200000000
#00118:0000000000000012
#0261b:0013
#02615:13130013
#02618:0000001300000000
#02612:0013000000000000
#0001a:0000000000000012
#00018:00000012
#00016:0000000000120000
#00014:0012
#0251b:00130013
#02515:00130000
#02518:0000003300000013
#02512:0000003300000000
#02510:41
#00418:0012
#00414:00120000
#00416:0000001200000000
#00412:12
#0021c:0000000012000012
#00216:0000001200000000
#00212:12
#06912:24
#0215b:1313
#02155:1313
#02152:00530000
#02352:1313
#02358:1313
#0235b:00630000
#05358:00130000
#05355:00130000
#0535b:63
#05352:53
#05552:00231300
#0555b:13
#05558:0013
#05555:1300006300000000
#0315b:00231300
#03155:00231300
#03152:1300005300000000
#03158:1300005300000000
#02053:0023000033000000
#0205a:0023000043000000
#02058:6300002300005300
#02055:5300002300000000
#02054:00530000
#02059:00630000
#02558:0013
#02552:0013
#02555:13630000
#0255b:13630000
#07252:00000013
#0725b:00000013
#07258:0053
#07255:0063
#0665a:14
#06652:5454
#06656:00641400
#06252:14
#06256:0014
#06053:00000000000000006363636313000000
#0605a:00000000000000005353535313000000
#06054:0000000000000000000000000000000000000023000000230000000000000000
#06052:0000000000000000000000000000000000230000002300000000000000000000
#06059:0000000000000000000000000000000000000023000000230000000000000000
#0605b:0000000000000000000000000000000000230000002300000000000000000000
#06852:14005414
#0685a:00001464
#06855:0000000000240000
#06857:0000000000000024
#0675a:6414
#06752:14
#06552:14
#0655a:6464
#06556:00541400
#0615a:14
#06156:0014
#03652:00000034
#0375a:44
#03755:0063
#0195b:00630000
#01952:00530000
#05254:00000034
#0645a:0014
#06452:14
#0635a:0014
#06352:14
#02255:00000063
#0225b:0013
#04252:0053
#04855:00130000
#04858:53
#04852:0053
#0485b:00000013
#04758:00130000
#04755:63
#0475b:0063
#04752:00000013
#04655:00130000
#04658:53
#04652:0053
#0465b:00000013
#04558:00130000
#04555:63
#0455b:0063
#04552:00000013
#0545b:00000023
#05458:0000000000000053
#03052:00000023
#03058:00000023
#0305b:0000000000000063
#03055:0000000000000063
#0285b:0063
#02952:00230000
#0295b:00230000
#02955:63
#02958:53
#01855:63
#0175b:00630000
#01755:00630000
#0445b:0063
#04158:0053
#04155:63
#04052:0053
#03852:0053
#01252:0053
#0115b:00630000
#0105b:63
#00952:0053
#00955:00630000
#0085b:0063
#00752:00530000
#00652:53
#0055b:0063
#00558:00530000
#0265b:0013
#02655:00000063
#02452:00001353
#02458:00000053
#01658:0053
#01458:53
#01352:00530000
#01358:00530000
#005380:00130023
#0053b0:0033
#006320:13
#006350:00230000
#007320:00130000
#007350:0023
#0083b0:0013
#008380:00000023
#009350:00130023
#009320:0033
#0103b0:13
#010380:00230000
#0113b0:00130000
#011380:0023
#012320:0013
#012350:00000023
#013320:00130000
#013350:0023
#013381:00130000
#0133b1:0023
#014381:13
#0143b1:00230000
#0153b1:00001323
#015320:00000013
#016320:23
#016380:0013
#0163b0:00000023
#0173b0:00130000
#017380:0023
#017351:00130000
#017321:0023
#018351:13
#018321:00230000
#019321:00130000
#019331:0000003300000000
#019341:0033
#019351:0000000000333333
#020351:3300003300000000
#020331:0033000023000000
#020341:00330000
#0193b0:00130000
#0193a0:0000003300000000
#019390:0033
#019380:0000000000333333
#020380:3300003300000000
#0203a0:0033000023000000
#020390:00330000
#020380:00000013
#0203b0:0000000000000033
#0213b0:23
#021320:00130000
#021350:0000003323000000
#022350:00000013
#022320:0000000000000033
#023320:23
#0233b0:00130000
#023380:0000003323000000
#024320:00000013
#024350:0000000000000033
#025350:23
#024381:00000013
#0243b1:0000000000000033
#0253b1:23
#0253b1:00130000
#025381:0000003323000000
#025350:00130000
#025320:0000003323000000
#026350:00000013
#027320:23
#0283b0:0013
#028380:00000023
#029380:1323
#0293b0:0033333300000000
#029351:1323
#029321:0033333300000000
#030321:13230000
#0303b0:00132300
#030320:00000013
#030350:0000000000000033
#031320:23
#030381:00000013
#0303b1:0000000000000033
#031381:23
#0313b1:00132300
#031381:0000003300000000
#031350:00132300
#031320:0000003300000000
#0323b0:1323000000000000
#032351:0013230000000000
#032380:0000132300000000
#032321:0000001323000000
#0323b0:00001323
#0333b0:13
#0333a0:0033000000000000
#033390:00330000
#033380:0000003300000000
#033370:0023
#034320:13
#034330:0033000000000000
#034340:00330000
#034350:0000003300000000
#034360:0023
#037350:0013
#037320:00000023
#038320:0013
#038350:00000023
#040320:0013
#040350:00000023
#041350:13
#041320:00230000
#041380:0013
#0413b0:00000023
#042320:0013
#042350:00000023
#0443b0:0013
#044380:00000023
#045350:13
#045320:00230000
#0453b0:0013
#045380:00000023
#046380:13
#0463b0:00230000
#046320:0013
#046350:00000023
#047350:13
#047320:00230000
#0473b0:0013
#047380:00000023
#048380:13
#0483b0:00230000
#048320:0013
#048350:00000023
#0493b0:1323
#049390:0033003300000000
#049370:00330000
#050320:1323
#050340:0033003300000000
#050360:00330000
#0533b0:13
#053380:00230000
#053321:13
#053351:00230000
#0543b1:00000013
#054381:0000000000000033
#0553b1:23
#055321:00132300
#055351:0000003300000000
#059321:13230000
#059351:0033000000000000
#0593b1:00001323
#059381:0000000000330000
#060331:00000000000000001353535323000000
#060321:0000000000000000000000000000000000530000005300000000000000000000
#060341:0000000000000000000000000000000000000053000000530000000000000000
#0603a0:00000000000000001353535323000000
#0603b0:0000000000000000000000000000000000530000005300000000000000000000
#060390:0000000000000000000000000000000000000053000000530000000000000000
#0653a0:1434
#065380:0034003400000000
#065360:00340024
#066320:1434
#066340:0034003400000000
#066360:00340024
#0673a0:14
#067360:00240000
#068320:00001424
#068350:0000000000540000
#0683a1:00000014
#068371:0000000000000054
#0693a1:34
#070381:26
#069320:14
#070320:26
#072380:0013
#0723b0:00000023
#072351:0013
#072321:00000023
#038960:0013000000000000
#038920:00230000
#039920:0013000000000000
#039960:00230000
#0429b0:0013000023000000
#042980:00000000005300000000000000000000
#0439b0:0013000000000000
#043970:00230000
