This file was generated by Ched 2.7.0.0.
#TITLE ""
#ARTIST ""
#DESIGNER ""
#DIFFICULTY 0
#PLAYLEVEL
#SONGID ""
#WAVE ""
#WAVEOFFSET 0
#JACKET ""
#REQUEST "ticks_per_beat 480"
#00002: 4
#BPM01: 166
#00008: 01
#TIL00: ""
#VOLUME: ""
#HISPEED 00
#MEASUREHS 00
#00515:00130013
#0051b:13
#00518:0000000000000013
#00510:41
#01318:00000013
#01315:0000000000000013
#0131b:13
#01415:00001313
#0141b:1300000000130000
#01418:0000001300000013
#01412:00130000
#01512:1300000000130013
#01518:00130000
#01515:0000001300000000
#0151b:00001313
#01510:41
#0011a:1212
#00116:0000001200000000
#00114:0000000000000012
#00218:12
#0021c:0012
#00216:0000001200000012
#00319:0012
#0031a:12
#00315:0000001200000000
#00314:0000000000000012
#00418:1200001200000000
#00416:00121200
#01618:13130000
#01615:0013001300000000
#0211b:00000013
#02115:0000130000000013
#02112:0000003300000000
#02218:13130000
#02212:0013000000000033
#02215:0000001300001300
#0221b:0013
#02312:00000013
#02318:0000130000000013
#0231b:0000003300000000
#02415:13130000
#0241b:0013000000001300
#02418:0000001300000033
#02412:0013
#0251b:00000013
#02512:0000130000000013
#02515:0000003300000000
#02510:41
#02618:13001313
#02615:0013000000000000
#0261b:00130000
#02612:0000001300001300
#02715:00000013
#02714:0013
#02712:13
#02713:00130000
#0271b:0000000000000013
#0271a:0000000000130000
#02718:0013000000000000
#02719:0000001300000000
#02814:13
#02813:00130000
#0281a:0013000000000000
#02819:0000001300000000
#03815:0000000000000013
#0381b:00000013
#03812:5353000000000000
#03813:00000053000000000000000000000000
#03814:0000535353000000
#0301b:13
#03018:00131300
#03015:1300001300000000
#04515:13
#04518:0000001313000000
#04512:00000013
#0451f:11
#04618:13
#04615:0000001313000000
#0461b:00000013
#04715:13
#04718:0000001313000000
#04712:00000013
#04818:13
#04815:0000001313000000
#0481b:00000013
#0571b:0013001300001300
#05716:0000130000000013
#05712:2323
#06017:0013000000000000
#06014:00130000
#06019:0000001300000000
#06012:23
#0621b:00130013
#06215:0000000013000013
#06218:0000001300000000
#06212:23
#06312:00131300
#06318:0000001300000000
#0631b:13000013
#06315:0000000000000013
#06310:41
#06412:0013000000000000
#06415:0000001300001300
#06418:1300000000000013
#0641b:00131300
#06518:00130013
#06515:2300000000000013
#06512:00130000
#0651b:23
#06513:0033000000000000
#06519:0033000000000000
#0651a:0000003300000000
#06514:0000003300000000
#06615:00130013
#06618:2300000000000013
#0661b:00130000
#06612:23
#0661a:0033000000000000
#06614:0033000000000000
#06613:0000003300000000
#06619:0000003300000000
#06715:0000001300000013
#06712:2300000000130000
#0671b:00230000
#06718:00002323
#06115:0000001300001300
#06118:0000000013000013
#06112:00130000
#0611b:23
#06918:0014
#06914:0014
#0691a:24
#06912:24
#02018:13000013
#0201b:0000130000000033
#02015:13
#02012:00130000
#0201a:0033003300000000
#02013:0033003300000000
#05612:0000001300001300
#05617:0000000000000013
#05615:0013000000000000
#05618:23130000
#0561b:0023
#00018:00001212
#00016:0000000000120012
#00612:1300000000333333
#00613:0033
#00614:0000003300000000
#0071b:0000130000000033
#0071a:00000033
#00719:0000000000330000
#00918:00130013
#00912:13
#00915:0000000000000013
#0101b:1300000000333333
#0101a:0033
#01019:0000003300000000
#01112:0000130000000033
#01113:00000033
#01114:0000000000330000
#04218:0000000000000013
#04212:00000013
#0421b:5353535353000000
#0421a:00000053005300530000000000000000
#04012:00000013
#04017:53
#04018:0053000000000000
#04019:00530000
#0401a:0000005300000000
#0401b:0053
#0441b:00000013
#04416:53
#04415:0053000000000000
#04414:00530000
#04413:0000005300000000
#04412:0053
#07012:00131300
#07018:0000001300000000
#0701b:00000013
#07015:0000000000000013
#0711b:13
#07118:0013000013130000
#07115:0000130000001313
#07112:0000001300000000
#0721a:1414
#07216:0014001400002400
#07212:00140000
#02918:14000013
#0291a:00140000
#02914:14
#02912:00140013
#03712:00130000
#0371a:24
#03714:0000005300000053
#03716:00005353
#0391b:1353000053000000
#0391a:00000053000053000000530000000000
#03919:00530053
#03918:0000000000000053
#03212:13
#03215:00131300
#03218:1300001300001300
#03115:00000013
#0311b:00000013
#03618:0013001300000000
#03612:13001324
#03615:00230000
#0361b:2323
#03515:0013001300130013
#03512:13
#03518:00132313
#0351b:23
#03510:41
#03418:00000013
#03415:00130000
#0341b:1313
#03412:1313
#03318:00000013
#03315:00130000
#0331b:1313
#03312:1313
#05215:0013001300000000
#0521b:1313
#05218:00230000
#05212:2323
#0521a:00000024
#05118:0013001300130013
#05115:00132313
#05112:13
#0511b:23
#05015:00000013
#05018:00130000
#05012:2313
#0501b:1313
#04915:00000013
#04918:00130000
#04912:1313
#0491b:2313
#0531b:0000000000000013
#05312:24000013
#05318:0024
#0531f:00210000
#05418:0013000000000000
#05415:23130000
#0541b:0000001300000000
#05412:0023
#05410:41
#05812:0013001300001300
#05817:0000130000000013
#0581b:2323
#05512:0000000000000013
#0551b:00000013
#05919:0013000000130000
#05916:00132300
#0591b:0000001300000000
#05914:23000013
#05917:0000000000000013
#06812:0013000000002300
#06815:0000001300000000
#0681b:2323
#06818:00230000
#01715:00000013
#01718:0000000000000013
#01712:13
#01818:00001313
#01812:1300000000130000
#01815:0000001300000013
#0181b:00130000
#0191b:13230000
#01919:0000003300000000
#01914:0000000000330000
#0411b:13530000
#04119:0000005300000053
#04117:00005353
#04312:1353000053000000
#04313:00000053000053000000530000000000
#04314:00530053
#04315:0000000000000053
#0081b:0033000000000000
#0081a:00330000
#00819:0000003300000000
#01212:0033000000000000
#01213:00330000
#01214:0000003300000000
#00555:00630000
#0695a:54
#06958:0024
#06954:0024
#06952:64
#02358:00530000
#0235b:0013
#02352:13
#02058:53000053
#0205b:00230000
#02055:63
#02052:00230000
#02155:00630000
#0215b:13
#02152:0013
#00652:53
#0075b:00630000
#00958:00530000
#0105b:63
#01152:00530000
#04552:00000013
#0465b:00000013
#04752:00000013
#0485b:00000013
#0725a:0064
#07256:00000014
#03154:13
#03159:0013
#02958:54
#0295a:00240000
#02954:64
#02952:00240000
#05354:00140000
#0525a:00000014
#03652:00000014
#0375a:14
#06056:00000013
#0615b:13
#06252:13
#0655b:6313
#06555:6313
#06552:00530000
#06558:00530000
#0665b:00630000
#06655:00630000
#06652:5313
#06658:5313
#06752:13
#0685b:1313
#06852:00000013
#0245b:00000063
#02552:00530000
#02558:13
#02555:0013
#0635b:13
#06352:0013
#0645b:0013
#02255:00000063
#05557:13
#05556:0013
#005350:00130000
#005320:0023
#006320:1300000000333333
#006350:00330000
#006340:0000003300000000
#006330:0033
#007320:23
#0073b0:0000130000000033
#007380:0033
#007390:0000000000330000
#0073a0:00000033
#0083b0:3333000000000000
#0083a0:00330000
#008390:0000003300000000
#008380:0023
#009380:00130000
#0093b0:0023
#0103b0:1300000000333333
#010380:00330000
#010390:0000003300000000
#0103a0:0033
#0113b0:23
#011320:0000130000000033
#011350:0033
#011340:0000000000330000
#011330:00000033
#012320:3333000000000000
#012330:00330000
#012340:0000003300000000
#012350:0023
#013320:00130000
#013350:0023
#016380:0013
#0163b0:00000023
#0173b0:00130000
#017380:0023
#0193b0:00130000
#019390:0000003300000000
#019380:0000000033333333
#020380:3323
#0203a0:0033003300000000
#0203b0:00330000
#019321:0000133333000000
#019341:0000000000330000
#019351:0000000000003333
#020351:3323
#020331:0033003300000000
#020321:00330000
#020381:00000013
#0203b1:0000000000000033
#0213b1:23
#021351:00130000
#021321:0000003323000000
#022351:00000013
#022321:0000000000000033
#023321:23
#023381:00130000
#0233b1:0000003323000000
#0243b1:00000013
#024381:0000000000000033
#025381:23
#025321:00130000
#025351:0000003323000000
#028321:0013
#028351:00000023
#029381:1424
#0293a1:00340000
#029340:1424
#029320:00340000
#030340:00000000000000000000000000000000000000000000000000000000000000000000000000000000000000000000000013000000000000530053000000000000
#030330:0000000000000035
#031340:23
#031390:00000000000000000000000000000000130000000000005300530000000000002300000000000000000000000000000000000000000000000000000000000000
#031380:0000003500000000
#053320:14
#053340:00240000
#0543b0:00000013
#054390:00000000000000000000000000000000000000000000000000000000000000000000000000000000000000000000000000000000000000530053000000000000
#054380:0000000000000035
#055370:23
#055320:00130000
#055340:00000000000000000000000000000000000000000000005300530000000000000000000000000000000000000000000000000000000000000000000000000000
#055330:0000003500000000
#055360:0023
#060360:00001323
#065350:1323
#065330:0033000000000000
#065320:00330000
#065340:0000003300000000
#0653b1:1323
#065391:0033000000000000
#065381:00330000
#0653a1:0000003300000000
#066381:1323
#0663a1:0033000000000000
#0663b1:00330000
#066391:0000003300000000
#066320:1323
#066340:0033000000000000
#066350:00330000
#066330:0000003300000000
#0693a0:14
#069380:0054
#0703a0:24
#069321:14
#069341:0054
#070321:24
#0723a1:0014
#072361:00000024
#037920:00130000
#037960:00005353
#038920:5353000000000000
#038940:00532300
#0399b0:1353000053000000
#039990:00530000
#039980:0000000000000053
#040970:53
#0409b0:0023
#0419b0:13530000
#041970:00005353
#041990:0000000000000053
#0429b0:5353535323000000
#0429a0:00000053005300530000000000000000
#043920:1353000053000000
#043940:00530000
#043950:0000000000000053
#044960:53
#044920:0023
