This file was generated by Ched 2.7.0.0.
#TITLE ""
#ARTIST ""
#DESIGNER ""
#DIFFICULTY 0
#PLAYLEVEL
#SONGID ""
#WAVE ""
#WAVEOFFSET 0
#JACKET ""
#REQUEST "ticks_per_beat 480"
#00002: 4
#BPM01: 166
#00008: 01
#TIL00: ""
#VOLUME: ""
#HISPEED 00
#MEASUREHS 00
#03818:1414
#03814:00140000
#03912:1414
#03918:00140014
#04012:14
#04016:00140000
#0401a:0014
#0691a:14
#0131a:14
#01312:0014
#0141a:14
#01412:0014
#01518:14
#01514:0014
#01510:41
#0211a:2414
#02114:00140000
#02212:1414
#02218:00140000
#03712:0014
#0371a:24
#04518:14
#0451f:11
#0451a:0000003400000000
#0541a:14
#05414:00140000
#05418:0014
#05410:41
#05514:00000014
#0561a:14
#05612:00140000
#05618:0014
#05614:00000014
#0631a:00000014
#06310:41
#06416:14
#06412:00140014
#0641a:0014
#0671a:14000014
#06716:00140000
#06712:0014
#06812:14000014
#06816:00140000
#0681a:0014
#0051a:1414
#00510:41
#00612:1414
#00718:1414
#00814:1414
#01618:14
#01614:0014
#02318:14
#02314:00140000
#0231a:0014
#02414:14
#02418:00140000
#02412:0014
#0251a:14
#02514:00140000
#02518:0014
#02510:41
#02612:14
#02618:00140000
#02614:0014
#0271a:1414
#02712:00140000
#02812:1414
#0281a:00140000
#02914:00140000
#02918:0014
#02912:00000014
#0291a:24
#03018:14
#03014:00140000
#0301a:0014
#03112:14
#0311a:0014
#03318:00140000
#03314:0014
#0331a:00000014
#03312:14
#03414:14
#03418:00140000
#03412:0014
#03212:14
#03216:00140000
#0321a:0014
#03512:00140000
#03518:0014
#03514:00000014
#0351a:14
#03510:41
#0361a:14
#03612:00140000
#03618:0014
#03614:00000014
#04214:1414
#04218:00140000
#0431a:1414
#04314:00140014
#0441a:14
#04416:00140000
#04412:0014
#0411a:0014
#04112:14
#04614:14
#04612:0000003400000000
#0471a:14
#04718:0000003400000000
#04812:14
#04814:0000003400000000
#04918:1414
#04914:00140014
#0501a:1414
#05012:00140014
#05118:14
#05114:00140000
#0511a:0014
#05112:00000014
#05218:14140000
#05214:0014001400000000
#05316:00140000
#0531a:0014
#05312:24000014
#0531f:00210000
#05812:14
#05818:00140000
#05814:0014
#0581a:00000014
#05918:00000014
#05914:14
#0591a:00140000
#05912:0014
#06012:14
#0601a:00140000
#06014:0014
#06018:00000014
#05716:00140000
#05712:0014
#0571a:24000014
#06118:00141400
#06114:0000001400000000
#06112:24000014
#0621a:14
#06214:00141400
#06218:0000001400000000
#06514:00141400
#06518:0000001400000000
#0651a:24000014
#06612:14000014
#06618:00141400
#06614:0000001400000000
#07012:00140000
#07018:0014
#07014:00000014
#0711a:1414
#07114:00140014
#0721a:14
#07216:00140000
#07212:0014
#0695a:64
#04558:54
#03152:14
#0315a:0014
#04654:64
#0475a:64
#04852:54
#05552:14
#0555a:0014
#06358:14
#06354:0014
#0093a0:1424
#010320:1424
#011380:1424
#012340:1424
#0173a0:14
#017380:0024
#018320:14
#018340:0024
#019380:14
#0193a0:0024
#020340:14
#020320:0024
#045380:14
#0453a0:0000003434002400
#046340:14
#046320:0000003434002400
#0473a0:14
#047380:0000003434002400
#048320:14
#048340:0000003434002400
#052380:00001424
#054320:00000014
#055320:24
#0553a0:00142400
#0623a0:00000014
#063380:24
#063320:00140000
#063340:0024
#0693a0:14
#070380:24
