This file was generated by Ched 2.7.0.0.
#TITLE ""
#ARTIST ""
#DESIGNER ""
#DIFFICULTY 0
#PLAYLEVEL
#SONGID ""
#WAVE ""
#WAVEOFFSET 0
#JACKET ""
#REQUEST "ticks_per_beat 480"
#00002: 4
#BPM01: 170
#00008: 01
#TIL00: ""
#VOLUME: ""
#HISPEED 00
#MEASUREHS 00
#00118:00130013
#0011b:0000001300000000
#00115:0000001300130000
#00112:24000013
#0011a:24
#00215:1313
#00212:00130013
#00312:1300001300000000
#00315:00130013
#00318:0000001300130000
#0031b:00000013
#0051b:13000013
#00518:0000131300000000
#00512:0000001300000000
#00515:0000000000131300
#00418:1313
#0041b:00130013
#00612:1313
#00615:00130013
#00712:13000013
#00715:0000131300000000
#0071b:0000001300000000
#00718:0000000000131300
#0081b:1300000013000013
#00818:0000131300001300
#00812:0000000000000013
#0091b:0000130000001313
#00912:00130013
#00918:0013
#00915:23
#00910:41
#01015:1300000000130000
#01012:00130013
#0101b:00130013
#01018:0000000013000013
#0111b:00130000
#01112:0000001300000013
#01118:0000000000000013
#01215:0000001300000013
#01218:0013
#01212:00000013
#0121b:00000013
#01318:13
#0131b:00130013
#01312:0000130000001313
#01315:0013
#01418:1300001300130000
#01412:00130013
#0141b:00130013
#01415:0000000013000013
#01512:0000130000000013
#0151b:0000001300130000
#01518:0000000000000013
#01612:13130013
#0161b:0000130000000013
#01615:0000001300000000
#01618:13
#0171b:00130013
#01712:00130013
#01715:2400000000130013
#01710:41
#01818:1300000000130013
#01815:0013000013000000
#01812:00130013
#0181b:00130013
#01915:13
#0191b:00130000
#01916:00130000
#0201b:0000001300001300
#02012:0000000000000013
#02412:13000013
#02418:13
#02415:0013
#0241b:00000013
#02518:00130013
#0251b:0000001300000000
#02515:0000001300130000
#02512:24000013
#0251f:11
#0251a:24
#02616:1353
#02614:0053005300530053
#02612:00530053
#02715:00130013
#02712:0000001300000000
#02718:0000001300130000
#0271b:00000013
#02716:53
#03012:1353
#03014:0053005300530053
#03016:00530053
#0291b:0000131300000000
#02915:0000001300000000
#02912:0000000000131300
#02918:00000013
#02917:53
#02817:1353
#02819:0053005300530053
#0281b:00530053
#03112:5300131300000000
#03118:0000001300000000
#0311b:0000000000131300
#03115:00000013
#03214:00130000
#03219:0013
#0321b:00000013
#03217:22222222
#0331b:1300001300130000
#03312:1300001300000000
#03319:00120000
#03315:0000120000130013
#03318:00000013
#0331f:21
#03418:0013001300000000
#03415:00130000
#03412:00002424
#0341a:00002424
#03410:41
#03515:13
#0351b:1300002300230000
#03512:00130013
#03518:0000130000000013
#03514:0000000000000000000000000014000000000000000000000000000000000000
#03516:0000002214000000
#03615:13
#03618:0013
#03612:0000000000242400
#0361a:0000000000242400
#0371b:00130000
#03712:00130000
#03718:23001313
#03715:2313
#03915:13000023
#03918:1300000000000023
#03912:00130000
#0391b:00130000
#04118:13
#04112:13000000000000000000130000000016
#0411b:0000132300130000
#04115:00000000001300000000000000000000
#04114:0000000000000022
#04119:00000023
#04117:0000000000000023
#04215:0000130000000013
#04218:0023001300000000
#04212:00002424
#0421a:00002424
#0431b:1300001300000013
#04312:0000130000130000
#04318:0000130000130000
#04315:0000001300000000
#04314:00000013
#04316:0000000000000013
#04419:130000000000000000000000000000000000000000000000000000000000000000000000000000000000000000000000000000000000000000000000000000000000000000000000000000000000000000000000000000140000000000001400
#04413:000000000000000000000000000000000000000000000000000000000000000000000000000000000000000000000000000000000000000000000000000000140000000000001400000000000000000000000000000000000000000000000000
#04412:00001300000000000000001600000000
#04418:00000000000000000000230000000016
#04417:0013000000000000
#0441b:0000001300000000
#04416:0000001300000000
#04414:0000000000220000
#0441a:0000000000000022
#04415:0000000000000023
#04018:0000001300000000
#04015:0013
#0401a:0000000000242400
#04012:0000000000242400
#03815:1322
#03816:00220000
#03818:00220000
#03817:00002222
#03819:00000022
#04916:14
#05118:00130013
#0511b:0000001300000000
#05115:0013001300000000
#05112:2400000000131300
#0511a:24
#05110:41
#05215:1313000013130000
#05218:0000131300001313
#0531a:14
#05312:1400001300000000
#05315:00130013
#05318:0013001300000000
#0531b:0000000000131300
#06518:0013130000001424
#06514:0000000000002414
#06515:00000013000000000000000000000000
#06512:24
#0651a:24
#06513:0000002424000000
#06519:0000002424000000
#05418:1313000013130000
#05415:0000131300001313
#02112:00130013
#0211b:00130013
#02118:2300000000130013
#02218:0013000013000000
#02215:0000001300130013
#02212:00130013
#0221b:00130013
#05915:0013000013000000
#05918:0000130000130000
#0591a:2400001400001400
#05912:2400001400001400
#05910:41
#06016:00140000
#0601a:00140014
#0601b:1212
#06118:0013000013000000
#06115:0000130000130000
#06112:1400001400001400
#0611a:1400001400001400
#06216:00140000
#06212:00140014
#06213:1212
#06315:00140000
#06312:2400001400002400
#0631a:2400001400002400
#06317:0000000000140000
#06416:14
#0641a:00140014
#06415:0000001313000000
#06418:00000000000000130000130000000000
#06412:00000014
#0551a:14
#05512:1400001300001300
#05515:0013000000130000
#05518:00130000
#0551b:0000001300001300
#05618:1313
#05615:0013001300130013
#0561b:00130013
#05612:00130013
#05712:1400001300001300
#0571a:14
#05718:0013000000130000
#05715:00130000
#0571b:0000001300001300
#05815:1300000013130000
#05818:00001300000013000013000000000000
#05812:00130013
#0581b:00130013
#04512:0023130000000000
#04514:0013
#04516:0000000000001323
#04517:0023230000000000
#04618:0013
#0461b:00130013
#0471b:00000013
#04718:0000000000000013
#04715:0000000000000013
#04716:00130000
#04714:0013
#04717:23
#04712:00000023
#0231b:2300002300000023
#02318:0000230000230000
#02312:2300230000230000
#02315:0000002300000023
#06710:41
#06712:74737475
#05017:52525252
#07112:54737475
#0711a:64640000
#07118:0000006400640000
#07119:00000064
#07312:54540000
#07314:0000005400540000
#07313:00000054
#07319:65000075
#0731b:00730000
#0731a:0074
#07413:5454
#07415:0054005400540000
#07412:00000055
#0741a:7474
#0741b:00730000
#07419:00000075
#00017:52525252
#07219:64006464
#07217:0064006400640064
#07212:74737475
#06812:74737475
#0691a:7474
#0691b:00730000
#06919:00000075
#0701a:7474
#0701b:00730000
#07019:00000075
#0015b:0000001300000000
#00152:14000013
#0015a:14
#00158:00000053
#00352:1300001300000000
#0035b:13000013
#00355:00000063
#0055b:13000063
#00552:13
#00558:0000001300000000
#00555:00000013
#00758:13000013
#00752:13000053
#00755:0000001300000000
#01152:0000000000000053
#01158:0000000000000053
#01755:14
#01555:0000000000130000
#0155b:0000000000130000
#01652:13
#01658:13
#02355:0000000000000053
#0235b:0000000000000053
#02452:53
#02458:53
#0255b:0000001300000000
#02552:14000013
#02558:00000053
#0255a:14
#0275b:13000013
#02756:13
#02752:0000001300000000
#02755:00000063
#02952:13000013
#0295b:0000001300000000
#02958:00000053
#02957:13
#03152:1300001300000000
#0315b:13000013
#03155:00000053
#03257:00000012
#03352:1300001300000000
#0335b:1300001300000000
#03355:0000000000000053
#03555:13
#0355b:13
#03554:0000000000000000000000000024000000000000000000000000000000000000
#03556:0000005254000000
#03755:1353
#03758:13000053
#03955:63000013
#03958:6300000000000013
#03952:00230000
#0395b:00230000
#04158:13
#04152:13000000000000000000000000000026
#04154:0000000000000062
#0415b:0000001300000000
#0435b:1300001300000000
#04355:0000001300000000
#05057:00000012
#04956:54
#05158:00000013
#0515b:0000001300000000
#0515a:14
#05352:1400001300000000
#05355:00000013
#06554:0000000000000064
#06558:0000000000000064
#06752:64236425
#06852:64236425
#0695a:5454
#0695b:00230000
#06959:00000025
#0705a:5454
#0705b:00230000
#07059:00000025
#07152:64236425
#07252:64236425
#07359:65000025
#0735b:00230000
#0735a:0054
#0745a:5454
#0745b:00230000
#07459:00000065
#07452:00000065
#0595a:1400001400001400
#05952:00000054
#06056:00240000
#0605a:00140014
#06152:1400001400001400
#0615a:00000064
#06256:00240000
#06252:00140014
#06352:0000001400005400
#0635a:14000014
#06456:24
#0645a:00000014
#06452:00000014
#0555a:14
#0555b:0000001300001300
#0565b:00130013
#05752:1400001300001300
#05852:00130013
#04453:000000000000000000000000000000000000000000000000000000000000000000000000000000000000000000000000000000000000000000000000000000540000000000002400000000000000000000000000000000000000000000000000
#04452:00001300000000000000002600000000
#04459:000000000000000000000000000000000000000000000000000000000000000000000000000000000000000000000000000000000000000000000000000000000000000000000000000000000000000000000000000000640000000000002400
#04458:00000000000000000000000000000026
#04454:0000000000520000
#0445a:0000000000000052
#0445b:0000001300000000
#04552:00130000
#04557:00630000
#04556:0000000000000063
#0455b:0000000000000013
#0475b:00000023
#04758:0000000000000053
#04755:0000000000000063
#04757:63
#04752:13000023
#00057:00000012
#001380:00000013
#0023b0:000000000000335353000000335353000000335353000000335353000000335353000000335353000000335353000000
#002390:000000000000000000000000005500000000000000000000005500000000000000000000005500000000000000000000005500000000000000000000005500000000000000000000005500000000000000000000005500000000000000000000
#0023a0:0000000000540000005400000054000000540000005400000054000000540000
#0033b0:23
#003350:00000013
#004320:000000000000000000000000335553545300000000000000335553545300000000000000335553545300000000000000335553545300000000000000335553545300000000000000335553545300000000000000335553545300000000000000
#005320:23
#0053b0:00000013
#006380:000000000000000000000000335553545300000000000000335553545300000000000000335553545300000000000000335553545300000000000000335553545300000000000000335553545300000000000000335553545300000000000000
#007380:23
#007320:00000013
#008350:000000000000335353000000335353000000335353000000335353000000335353000000230000000000000000000000
#008330:000000000000000000000000005500000000000000000000005500000000000000000000005500000000000000000000005500000000000000000000005500000000000000000000000000000000000000000000000000000000000000000000
#008340:0000000000540000005400000054000000540000005400000000000000000000
#011350:13230000
#011380:0000001300230000
#011321:0000000000130033
#012351:00230000
#011380:0000000000000013
#0123b0:00230000
#015380:13230000
#015350:0000001300230000
#016380:00001323
#017380:0000001300230000
#019360:0000001300230000
#0193b1:0000001300230000
#019361:0000000000000013
#020361:00230000
#0193b0:0000000000000013
#0203b0:00230000
#020350:00001323
#021350:0000001300230000
#023350:0000000000000013
#024320:33
#024350:00230000
#0233b1:0000000000000013
#024381:33
#0243b1:00230000
#025381:00000013
#0263b1:000000000000335353000000335353000000335353000000335353000000335353000000335353000000335353000000
#026391:000000000000000000000000005500000000000000000000005500000000000000000000005500000000000000000000005500000000000000000000005500000000000000000000005500000000000000000000005500000000000000000000
#0263a1:0000000000540000005400000054000000540000005400000054000000540000
#0273b1:23
#027351:00000013
#028321:000000000000000000000000335553545300000000000000335553545300000000000000335553545300000000000000335553545300000000000000335553545300000000000000335553545300000000000000335553545300000000000000
#029321:23
#029381:00000013
#0303b1:000000000000335353000000335353000000335353000000335353000000335353000000335353000000335353000000
#030391:000000000000000000000000005500000000000000000000005500000000000000000000005500000000000000000000005500000000000000000000005500000000000000000000005500000000000000000000005500000000000000000000
#0303a1:0000000000540000005400000054000000540000005400000054000000540000
#0313b1:23
#031351:00000013
#032321:23
#033351:0000000000000013
#034321:0023000000000000
#035361:000000000000000000000000000000000000000000000000000000000000000000000000000000000000000000000000000000000000000000000000000000000000000000000000000000000000000000000000000000000000000000000000000000000000000000000000000000000000000000000000000000000000000000000000000000000000000000000000000000000000000000000000000000000000000000000000000000000000000000000000000000000000000000000000000000000000000000000000000000000000000000000000000000000000000000000000000000000000000000000000000000000000000000000000000000000000000000000000000000000000000000000000000000000000000000000000000000000000000000000000000000000000000000000000000000000000000000000000000000000000000000000000000000000000000000000000000000000000000000000000000000000000000000000000000000000000000000000000000000000000000000000000000000000000000000000000000000000000000000000000000000000000000000000000000000000000000000000000000000000000000000000000000000000000000000000000000000000000000000000000000000000000000000000000000000000000000000000000000000000000000000000000000000000000000000000000000000000000000000000000000000000000000000000000000000000000000000000000000000000000000000000000000000000000000000000000000000000000000000000000000000000000000000000000000000000000000000000000000000000000000000000000000000000000000000000000000000000000000000000000000000000000000000000000000000000000000000000000000000000000000000000000000000000000000000000000000000000000000000000000120000000000000000000000000000000000000000000000000000000000000000000000000000000000000000000000000000000000000000000000000000000000000000000000000000000000000000000000000000000000000000000000000000000000000000000000000000000000000000000000520000000000000000000000000000000000000000000000000000000000000000000000000000000000000000000000000000000000000000000000000000000000000000000000000000000000000000000000000000000000000000000000000000000000000000000000000000000000000000000052540000000000000000000000000000000000000000000000000000000000000000000000000000000000000000000000000000000000000000000000000000000000000000000000000000000000000000000000000000000000000000000000000000000000000000000000000000000000000000000000000000000000000000000000000000000000000000000000000000000000000000000000000000000000000000000000000000000000000000000000000000000000000000000000000000000000000000000000000000000000000000000000000000000000000000000000000000000000000000000000220000000000000000000000000000000000000000000000000000000000000000000000000000000000000000000000000000000000000000000000000000000000000000000000000000000000000000000000000000000000000000000000000000000000000000000000000000000000000000000000000000000000000000000000000000000000000000000000000000000000000000000000000000000000000000000000000000000000000000000000000000000000000000000000000000000000000000000000000000000000000000000000000000000000000000000000000000000000000000000000000000000000000000000000000000000000000000000000000000000000000000000000000000000000000000000000000000000000000000000000000000000000000000000000000000000000000000000000000000000000000000000000000000000000000000000000000000000000000000000000000000000000000000000000000000000000000000000000000000000000000000000000000000000000000000000000000000000000000000000000000000000000000000000000000000000000000000000000000000000000000000000000000000000000000000000000000000000000000000000000000000000000000000000000000000000000000000000000000000000000000000000000000000000000000000000000000000000000000000000000000000000000000000000000000000000000000000000000000000000000000000000000000000000000000000000000000000000000000000000000000000000000000000000000000000000000000000000000000000000000000000000000000000000000000000000000000000000000000000000000000000000000000000000000000000000000000000000000000000000000000000000000000000000000000000000000000000000000000000000000
#035341:0000000000000000000000000054000000000000000000000000000000000000
#0363b1:13
#036381:00230000
#036350:00130000
#036320:0023
#037350:0013
#037320:00000023
#037381:00000013
#0383b1:23
#038381:00000000000000000000000000000000120000540000540000000000000000000000000000000000000000000000000000000000000000000000000000000000
#038391:0000002200000000
#038360:00120000
#038340:00000000000000000000000000000000000000540000540000000000000000000000000000000000000000000000000000000000000000000000000000000000
#038350:0000002200000000
#038370:00000000000000000000000000000000000000000000000000000000000000001200005400005400000000000000000000000000000000000000000000000000
#038380:0000000000220000
#038351:0012
#038331:00000000000000000000000000000000000000000000000000000000000000000000005400005400000000000000000000000000000000000000000000000000
#038341:0000000000220000
#038391:00000000000000000000000000000000000000000000000000000000000000000000000000000000000000000000000012000054000054000000000000000000
#0383a1:0000000000000022
#038370:00000012
#038350:00000000000000000000000000000000000000000000000000000000000000000000000000000000000000000000000000000054000054000000000000000000
#038360:0000000000000022
#039350:13005323
#039320:00530000
#039381:1300000053000023
#0393b1:00530000
#041341:0000000000000012
#041321:00000000000000000000000000000056
#042341:0022000000000000
#044341:0000000000122200
#044331:000000000000000000000000000000000000000000000000000000000000000000000000000000000000000000000000000000000000000000000000000054540000000000545400000000000000000000000000000000000000000000000000
#044321:00000000000000000000005600000000
#0443a1:0000000000000012
#044391:000000000000000000000000000000000000000000000000000000000000000000000000000000000000000000000000000000000000000000000000000000000000000000000000000000000000000000000000000054540000000000545400
#044381:00000000000000000000000000000056
#0453a1:22
#045371:00130000
#0453b1:0000000000000023
#045360:0000000000000013
#047320:23
#047371:13
#0473b1:00000033
#047381:0000000000000033
#0483a1:00000024
#047320:00000013
#047350:0000000000000033
#048320:00000024
#049360:14
#050370:22
#059320:00000014
#060360:00540000
#060320:00000024
#0613a0:00000014
#062360:00540000
#0623a0:00000024
#063320:00000014
#064360:54
#064320:00240000
#065380:0000000000000014
#0673a0:34340000
#067380:0000003400340000
#067390:00000034
#068390:34003434
#068370:0034003400340034
#0693a0:3454
#0693b0:00530000
#069390:00000055
#0703a0:5454
#0703b0:00530000
#070390:00000055
#0713a0:24
#065341:0000000000000014
#067321:54535455
#068321:54535455
#069321:34340000
#069341:0000003400340000
#069331:00000034
#070331:34003434
#070351:0034003400340034
#071321:24
#000970:120000000000000000000000000000000000000000000000000000000000000000000000000000000000000000000000000000000000000000000000000000000000000000000000000000000000000000000000000000000000000000000000000000000000000000000000000000000000000000000000000000000000000000000000000000000000000000000000000000000000000000000000000000000000000000000000000000000000000000000000000000000000000000000000000000000000000000000000000000000000000000000000000000000000000000000000000000000000000000000000000000000000000000000000000000000000000000000000000000000000000000000000000000000000000000000000000000000000000000000000000000000000000000000000000000000000000000000000000000000000000000000000000000000000000000000000000000000000000000000000000000000000000000000000000000000000000000000000000000000000000000000000000000000000000000000000000000000000000000000000000000000000000000000000000000000000000000000000000000000000000000000000000000000000000000000000000000000000000000000000000000000000000000000000000000000000000000000000000000000000000000000000000000000000000000000000000000000000000000000000000000000000000000000000000000000000000000000000000000000000000000000000000000000000000000000000000000000000000000000000000000000000000000000000000000000000000000000000000000000000000000000000000000000000000000000000000000000000000000000000000000000000000000000000000000000000000000000000000000000000000000000000000000000000000000000000000000000000000000000000000000000000000000000000000000000000000000000000000000000000000000000000000000000000000000000000000000000000000000000000000000000000000000000000000000000000000000000000000000000000000000000000000000000000000000000000000000000000000000000000000000000000000000000000000000000000000000000000000000000000000000000000000000000000000000000000000000000000000000000000000000000000000000000000000000000000000000000000000000000000000000000000000000000000000000000000000000000000000000000000000000000000000000000000000000000000000000000000000000000000000000000000000000000000000000000000000000000000000000000000000000000000000000000000000000000000000000000000000000000000000000000000000000000000000000000000000000000000000000000000000000000000000000000000000000000000000000000000000000000000000000000000000000000000000000000000000000000000000000000000000000000000000000000000000000000000000000000000000000000000000000000000000000000000000000000000000000000000000000000000000000000000000000000000000000000000000000000000000000000000000000000000000000000000000000000000000000000000000000000000000000000000000000000000000000000000000000000000000000000000000000000000000000000000000000000000000000000000000000000000000000000000000000000000000000000000000000000000000000000000000000000000000000000000000000000000000000000000000000000000000000000000000000000000000000000000000000000000000000000000000000000000000000000000000000000000000000000000000000005252220000000000000000000000000000000000000000000000000000000000000000000000000000000000000000000000000000000000000000000000000000000000000000000000000000000000000000000000000000000000000000000000000000000000000000000000000000000000000000000000000000000000000000000000000000000000000000000000000000000000000000000000000000000000000000000000000000000000000000000000000000000000000000000000000000000000000000000000000000000000000000000000000000000000000000000000000000000000000000000000000000000000000000000000000000000000000000000000000000000000000000000000000000000000000000000000000000000000000000000000000000000000000000000000000000000000000000000000000000000000000000000000000000000000000000000000000000000000000000000000000000000000000000000000000000000000000000000000000000000000000000000000000000000000000000000000000000000000000000000000000000000000000000000000000000000000000000000000000000000000000000000000000000000000000000000000000000000000000000000000
#026960:1353
#026940:0053005300530053
#026920:00530053
#027960:23
#028970:1353
#028990:0053005300530053
#0289b0:00530053
#029970:23
#030920:1353
#030940:0053005300530053
#030960:00530053
#031920:23
#050970:120000000000000000000000000000000000000000000000000000000000000000000000000000000000000000000000000000000000000000000000000000000000000000000000000000000000000000000000000000000000000000000000000000000000000000000000000000000000000000000000000000000000000000000000000000000000000000000000000000000000000000000000000000000000000000000000000000000000000000000000000000000000000000000000000000000000000000000000000000000000000000000000000000000000000000000000000000000000000000000000000000000000000000000000000000000000000000000000000000000000000000000000000000000000000000000000000000000000000000000000000000000000000000000000000000000000000000000000000000000000000000000000000000000000000000000000000000000000000000000000000000000000000000000000000000000000000000000000000000000000000000000000000000000000000000000000000000000000000000000000000000000000000000000000000000000000000000000000000000000000000000000000000000000000000000000000000000000000000000000000000000000000000000000000000000000000000000000000000000000000000000000000000000000000000000000000000000000000000000000000000000000000000000000000000000000000000000000000000000000000000000000000000000000000000000000000000000000000000000000000000000000000000000000000000000000000000000000000000000000000000000000000000000000000000000000000000000000000000000000000000000000000000000000000000000000000000000000000000000000000000000000000000000000000000000000000000000000000000000000000000000000000000000000000000000000000000000000000000000000000000000000000000000000000000000000000000000000000000000000000000000000000000000000000000000000000000000000000000000000000000000000000000000000000000000000000000000000000000000000000000000000000000000000000000000000000000000000000000000000000000000000000000000000000000000000000000000000000000000000000000000000000000000000000000000000000000000000000000000000000000000000000000000000000000000000000000000000000000000000000000000000000000000000000000000000000000000000000000000000000000000000000000000000000000000000000000000000000000000000000000000000000000000000000000000000000000000000000000000000000000000000000000000000000000000000000000000000000000000000000000000000000000000000000000000000000000000000000000000000000000000000000000000000000000000000000000000000000000000000000000000000000000000000000000000000000000000000000000000000000000000000000000000000000000000000000000000000000000000000000000000000000000000000000000000000000000000000000000000000000000000000000000000000000000000000000000000000000000000000000000000000000000000000000000000000000000000000000000000000000000000000000000000000000000000000000000000000000000000000000000000000000000000000000000000000000000000000000000000000000000000000000000000000000000000000000000000000000000000000000000000000000000000000000000000000000000000000000000000000000000000000000000000000000000000000000000000000000000000005252220000000000000000000000000000000000000000000000000000000000000000000000000000000000000000000000000000000000000000000000000000000000000000000000000000000000000000000000000000000000000000000000000000000000000000000000000000000000000000000000000000000000000000000000000000000000000000000000000000000000000000000000000000000000000000000000000000000000000000000000000000000000000000000000000000000000000000000000000000000000000000000000000000000000000000000000000000000000000000000000000000000000000000000000000000000000000000000000000000000000000000000000000000000000000000000000000000000000000000000000000000000000000000000000000000000000000000000000000000000000000000000000000000000000000000000000000000000000000000000000000000000000000000000000000000000000000000000000000000000000000000000000000000000000000000000000000000000000000000000000000000000000000000000000000000000000000000000000000000000000000000000000000000000000000000000000000000000000000000000000
#0719a0:14540000
#071980:0000005400540000
#071990:00000054
#072990:54005454
#072970:0054005400540054
#073990:55000055
#0739b0:00530000
#0739a0:0054
#0749a0:5454
#0749b0:00530000
#074990:00000055
#0759d0:000000000000000000000000000000000000000000000000000000000000000000000000000000000000000000000000000000000000000000000000000000000000000000000000000000000000000000000000000000000000000000000000000000000000000000000000000000000000000000000000000000000000000000000000000000000000000000000000000000000000000000000000000000000000000000000000000000000000000000000000000000000000000000000000000000000000000000000000000000000000000000000000000000000000000000000000000000000000000000000000000000000000000000000000000000000000000000000000000000000000000000000000000000000000000000000000000000000000000000000000000000000000000000000000000000000000000000000000000000000000000000000000000000000000000000000000000000000000000000000000000000000000000000000000000000000000000000000000000000000000000000000000000000000000000000000000000000000000000000000000000000000000000000000000000000000000000000000000000000000000000000000000000000000000000000000000000051515151515151515151210000000000000000000000000000000000000000000000000000000000000000000000000000000000000000000000000000000000000000000000000000000000000000000000000000000000000000000000000000000000000000000000000000000000000000000000000000000000000000000000000000000000000000000000000000000000000000000000000000000000000000000000000000000000000000000000000000000000000000000000000000000000000000000000000000000000000000000000000000000000000000000000000000000000000000000000000000000000000000000000000000000000000000000000000000000000000000000000000000000000000000000000000000000000000000000000000000000000000000000000000000000000000000000000000000000000000000000000000000000000000000000000000000000000000000000000000000000000000000000000000000000000000000000000000000000000000000000000000000000000000000000000000000000000000000000000000000000000000000000000000000000000000000000000000000000000000000000000000000000000000000000000000000000000000000000000000000000000000000000000000000000000000000000000000000000000000000000000000000000000000000000000000000000000000000000000000000000000000000000000000000000000000000000000000000000000000000000000000000000000000000000000000000000000000000000000000000000000000000000000000000000000000000000000000000000000000000000000000000000000000000000000000000000000000000000000000000000000000000000000000000000000000000000000000000000000000000000000000000000000000000000000000000000000000000000000000000000000000000000000000000000000000000000000000000000000000000000000000000000000000000000000000000000000000000000000000000000000000000000000000000000000000000000000000000000000000000000000000000000000000000000000000000000000000000000000000000000000000000000000000000000000000000000000000000000000000000000000000000000000000000000000000000000000000000000000000000000000000000000000000000000000000000000000000000000000000000000000000000000000000000000000000000000000000000000000000000000000000000000000000000000000000000000000000000000000000000000000000000000000000000000000000000000000000000000000000000000000000000000000000000000000000000000000000000000000000000000000000000000000000000000000000000000000000000000000000000000000000000000000000000000000000000000000000000000000000000000000000000000000000000000000000000000000000000000000000000000000000000000000000000000000000000000000000000000000000000000000000000000000000000000000000000000000000000000000000000000000000000000000000000000000000000000000000000000000000000000000000000000000000000000000000000000000000000000000000000000000000000000000000000000000000000000000000000000000000000000000000000000000000000000000000000000000000000000000000000000000000000000000000000000000000000000000000000000000000000000000000000000000000000000000000000000000000000000000000000000000000000000000000000000000000000000000000000000000000000000000000000000000000000000000000000000000000000000000000000000000000000000000
#071921:14535455
#072921:54535455
#073921:54540000
#073941:0000005400540000
#073931:00000054
#074931:5454
#074951:0054005400540000
#074921:00000055
#075921:000000000000000000000000000000000000000000000000000000000000000000000000000000000000000000000000000000000000000000000000000000000000000000000000000000000000000000000000000000000000000000000000000000000000000000000000000000000000000000000000000000000000000000000000000000000000000000000000000000000000000000000000000000000000000000000000000000000000000000000000000000000000000000000000000000000000000000000000000000000000000000000000000000000000000000000000000000000000000000000000000000000000000000000000000000000000000000000000000000000000000000000000000000000000000000000000000000000000000000000000000000000000000000000000000000000000000000000000000000000000000000000000000000000000000000000000000000000000000000000000000000000000000000000000000000000000000000000000000000000000000000000000000000000000000000000000000000000000000000000000000000000000000000000000000000000000000000000000000000000000000000000000000000000000000000000000000051515151515151515151210000000000000000000000000000000000000000000000000000000000000000000000000000000000000000000000000000000000000000000000000000000000000000000000000000000000000000000000000000000000000000000000000000000000000000000000000000000000000000000000000000000000000000000000000000000000000000000000000000000000000000000000000000000000000000000000000000000000000000000000000000000000000000000000000000000000000000000000000000000000000000000000000000000000000000000000000000000000000000000000000000000000000000000000000000000000000000000000000000000000000000000000000000000000000000000000000000000000000000000000000000000000000000000000000000000000000000000000000000000000000000000000000000000000000000000000000000000000000000000000000000000000000000000000000000000000000000000000000000000000000000000000000000000000000000000000000000000000000000000000000000000000000000000000000000000000000000000000000000000000000000000000000000000000000000000000000000000000000000000000000000000000000000000000000000000000000000000000000000000000000000000000000000000000000000000000000000000000000000000000000000000000000000000000000000000000000000000000000000000000000000000000000000000000000000000000000000000000000000000000000000000000000000000000000000000000000000000000000000000000000000000000000000000000000000000000000000000000000000000000000000000000000000000000000000000000000000000000000000000000000000000000000000000000000000000000000000000000000000000000000000000000000000000000000000000000000000000000000000000000000000000000000000000000000000000000000000000000000000000000000000000000000000000000000000000000000000000000000000000000000000000000000000000000000000000000000000000000000000000000000000000000000000000000000000000000000000000000000000000000000000000000000000000000000000000000000000000000000000000000000000000000000000000000000000000000000000000000000000000000000000000000000000000000000000000000000000000000000000000000000000000000000000000000000000000000000000000000000000000000000000000000000000000000000000000000000000000000000000000000000000000000000000000000000000000000000000000000000000000000000000000000000000000000000000000000000000000000000000000000000000000000000000000000000000000000000000000000000000000000000000000000000000000000000000000000000000000000000000000000000000000000000000000000000000000000000000000000000000000000000000000000000000000000000000000000000000000000000000000000000000000000000000000000000000000000000000000000000000000000000000000000000000000000000000000000000000000000000000000000000000000000000000000000000000000000000000000000000000000000000000000000000000000000000000000000000000000000000000000000000000000000000000000000000000000000000000000000000000000000000000000000000000000000000000000000000000000000000000000000000000000000000000000000000000000000000000000000000000000000000000000000000000000000000000000000000000000000000000000000
