This file was generated by Ched 2.7.0.0.
#TITLE ""
#ARTIST ""
#DESIGNER ""
#DIFFICULTY 0
#PLAYLEVEL
#SONGID ""
#WAVE ""
#WAVEOFFSET 0
#JACKET ""
#REQUEST "ticks_per_beat 480"
#00002: 4
#BPM01: 170
#00008: 01
#TIL00: ""
#VOLUME: ""
#HISPEED 00
#MEASUREHS 00
#0091a:14
#00914:0014
#00910:41
#0101a:14
#01014:0014
#01118:14
#01112:0014
#01218:14
#01212:0014
#0131a:14
#01314:0014
#01418:14
#01412:0014
#02118:1414
#0151a:14
#01514:0014
#01618:14
#01612:0014
#02212:1414
#02318:1414
#02412:1414
#0171a:1414
#01710:41
#01814:1414
#0191a:1414
#02014:1414
#0251a:14
#02514:0000001400000000
#0251f:11
#02918:14
#02914:0000001400000000
#02712:14
#02718:0000001400000000
#03114:14
#03118:0000001400000000
#03314:00140014
#0331a:2414
#0331f:21
#03418:1414
#03412:00140000
#03410:41
#03512:1414
#03518:00140014
#03614:1414
#0361a:00140014
#03714:14
#0371a:0014
#03716:00000014
#03812:14
#03816:00140000
#0381a:0014
#03814:00000014
#03918:14
#04014:0014
#04018:00000014
#04118:00140014
#04112:2414
#04214:1414
#0421a:00140000
#0431a:1414
#04314:00140014
#04418:1414
#04412:00140014
#05112:14
#05118:0000001400000000
#05110:41
#0531a:14
#05314:0000001400000000
#05514:14
#05518:0000001400000000
#05718:14
#05714:0000001400000000
#05912:14000014
#05918:0000001400000000
#05910:41
#06014:0014000000000000
#0611a:14000014
#06114:0000001400000000
#06314:14000014
#06318:0000001400000000
#06412:0014000000000000
#06218:0014000000000000
#07418:0014
#07419:0000000000540000
#0741a:00000054
#0491a:24
#06518:24000024
#06514:0000002400000000
#06710:41
#03754:14
#0405a:14
#03958:54
#05952:00000064
#06054:0024000000000000
#06052:0014
#06354:00000054
#06452:0024000000000000
#06454:0014
#0615a:00000054
#06258:0024000000000000
#0625a:0014
#06558:00000054
#0013a0:14000034
#001380:0000003400000000
#0023a0:0024
#003320:14000034
#003340:0000003400000000
#004320:0024
#005380:14000034
#0053a0:0000003400000000
#006380:0024
#007340:14000034
#007320:0000003400000000
#008340:0024
#025380:00000014
#026380:0024
#027340:00000014
#028340:0024
#0293a0:00000014
#0303a0:0024
#031320:00000014
#032320:0024
#039380:14
#0393a0:0000000000003434
#0403a0:24
#045380:14
#0453a0:0024
#046340:14
#046320:0024
#0473a0:14
#047380:0024
#048320:14
#048340:0024
#0493a0:14
#0503a0:24
#051320:00000014
#052340:0024
#0533a0:00000014
#054380:0024
#055340:00000014
#056320:0024
#057380:00000014
#0583a0:0024
#059320:00000014
#060340:0054000000000000
#060320:0024
#0613a0:00000014
#062380:0054000000000000
#0623a0:0024
#063340:00000014
#064320:0054000000000000
#064340:0024
#065380:00000014
#0673a0:34
#068380:34
#0693a0:34
#070380:24
#071320:14
#072340:34
#073320:34
#074340:24
#074980:0014
#0749a0:00000024
