This file was generated by Ched 2.7.0.0.
#TITLE ""
#ARTIST ""
#DESIGNER ""
#DIFFICULTY 0
#PLAYLEVEL
#SONGID ""
#WAVE ""
#WAVEOFFSET 0
#JACKET ""
#REQUEST "ticks_per_beat 480"
#00002: 4
#BPM01: 192
#00008: 01
#TIL00: ""
#VOLUME: ""
#HISPEED 00
#MEASUREHS 00
#01218:16
#01312:16
#01418:16
#01512:16
#01618:16
#01918:14
#02114:14
#02318:14
#02310:41
#02514:14
#0441a:14
#04514:14
#0451a:0014
#04510:41
#04614:14
#04718:14
#04712:0014
#0471f:11
#04818:14
#04912:14
#04918:0014
#05012:14
#05912:0016
#05918:26
#0591f:21
#06112:16
#06118:0016
#06018:1616
#06010:41
#06312:0016
#06318:26
#06512:16
#06518:0016
#06418:1616
#06918:16
#06912:0016
#07112:16
#07118:0016
#07212:16
#07218:0016
#07418:16
#07412:0016
#07518:16
#07510:41
#07616:16
#07812:1616
#08018:1616
#08212:16
#08218:0016
#08312:16
#08414:16
#04314:0014
#0431a:24
#01112:26
#01110:41
#03719:34
#03619:34
#04113:34
#04013:34
#05714:0000000000000034
#03510:41
#07656:26
#07558:56
#08352:66
#08454:26
#001380:14
#003380:24
#005340:14
#007340:24
#009380:14
#010380:24
#017320:16
#018320:26
#027380:14
#028380:24
#029340:14
#030340:24
#0313a0:14
#0323a0:24
#033320:14
#034320:24
#0353a0:14
#036390:34
#037390:34
#038380:24
#039320:14
#040330:34
#041330:34
#042340:24
#0513a0:14
#0533a0:54
#054380:0024
#055320:14
#056320:0034
#057320:34
#057340:0000000000003434
#058340:0024
#062320:1626
#066320:1626
#067380:1626
#068320:1626
#070380:1626
#073320:1626
#075380:16
#076360:56
#077380:26
#079320:1626
#081380:1626
#083320:16
#084340:56
#085320:26
#087380:14
#088380:24
#089340:14
#090340:34000024
