This file was generated by Ched 2.7.0.0.
#TITLE ""
#ARTIST ""
#DESIGNER ""
#DIFFICULTY 0
#PLAYLEVEL
#SONGID ""
#WAVE ""
#WAVEOFFSET 0
#JACKET ""
#REQUEST "ticks_per_beat 480"
#00002: 4
#BPM01: 193
#00008: 01
#TIL00: ""
#VOLUME: ""
#HISPEED 00
#MEASUREHS 00
#0451b:13000013
#04512:24131300
#04517:0013
#04516:00000013
#0451f:21
#0471b:1313
#04712:00130000
#04716:2313
#05918:0013000013000000
#05915:0000130000130000
#05912:2300001300000013
#0591b:23000013
#05910:41
#0601b:0013000000000000
#06016:00130000
#06019:0000001300000000
#06014:0013
#06017:0000000000130000
#06012:00000013
#06518:0000001300000013
#0651b:00130013
#06512:1313
#06515:0013000000130000
#0661b:0013000000130000
#06615:00130013
#06612:0000001300000000
#06618:0000000013000013
#0671b:2300000013130000
#06718:0000230000000023
#0691b:1300000013130000
#06918:0000230000000023
#0701b:0013000013000000
#07018:00230013
#02918:0013000000000000
#02915:00130000
#02912:2400001300000000
#02919:0013
#02916:0000000000130000
#02913:00000013
#0291a:0000000000000013
#0291b:23
#02910:41
#03312:00130013
#03318:0000001300000013
#03315:0013
#0331b:0000000000130000
#03319:23
#03314:23
#03612:00130000
#0361b:13
#03616:13
#0361f:11
#03618:00001414
#03614:0000000000140000
#04112:2414
#04115:0000000000130000
#04118:00000013
#0411b:0000000000000013
#0411a:2414
#04212:1313
#0421b:00130013
#04218:13
#04216:00000013
#04317:14
#0431b:0000001300000000
#04312:13
#04316:0000001300000000
#02112:0013
#02115:0000000000130000
#02118:00000013
#0211b:2300230013000013
#02114:00130000
#02116:13
#02110:41
#0221b:00130013
#02218:0000001300000000
#02212:00130013
#02215:1400001300000000
#02517:13
#02516:00130000
#02512:1300000000000013
#0251b:0013
#02515:0000000000130000
#02518:00000013
#01318:1300130000130000
#01312:23231300
#01315:00000013
#0131b:0000000000000013
#01310:41
#01412:00000014
#01418:13001313
#0141b:00130000
#01912:13
#0191b:00130000
#01915:0013
#01917:00000013
#01918:13
#02012:1300000000130013
#02018:00000013
#00518:0000001313000000
#00515:2313000000001313
#0051a:24
#00510:41
#0061b:0000000000130000
#00615:0000000013000013
#00618:0013130000001300
#00712:13131400
#00717:0000001300000000
#00716:0000000000140014
#0071a:00000014
#0071b:1353
#00719:00000000000000530000000000000000
#0111b:13
#00115:0013000000001300
#00118:00130000
#00112:0000001300000000
#00117:0013
#0011b:0000000000000013
#0011a:24
#00212:0013001300000000
#00217:00130000
#0021b:00001313
#00215:0000000000130000
#00218:0000000000000013
#00318:0013000000001300
#00315:00130000
#0031b:0000001300000000
#00316:0013
#00312:1300000000000013
#0041b:0013000000000000
#00418:00130000
#00419:0013
#00416:0000000000130000
#00415:0000001300000000
#00412:00000024
#0041a:00000024
#01216:13
#01212:0013
#01217:0000001313000000
#01715:00130013
#01718:1300000000130000
#01712:2300000013000013
#0171b:00231300
#01818:00130013
#01815:1300000000130000
#0181b:2300000013000013
#01812:00231300
#02616:13
#02617:00130000
#0261b:1300000000000013
#02612:0013
#02618:0000000000130000
#02615:00000013
#03017:13000053
#03012:13000053
#0301b:00131300
#03016:00131300
#03014:0000000000530000
#03019:0000000000530000
#03412:13
#0341b:13130000
#03415:0013
#03417:00000013
#03512:1300000000130000
#03518:0000001300001300
#03515:0013000013000000
#0351b:00130000
#04418:1313130000000000
#04415:00130013000000000000000000000000
#04412:0000000024240000
#0441a:0000000024240000
#06115:0013000013000000
#06118:0000130000130000
#0611b:1300001300000013
#06112:13000013
#06212:0013000000000000
#06217:00130000
#06214:0000001300000000
#06219:0013
#06216:0000000000130000
#0621b:00000013
#06318:0013000013000000
#06315:0000130000130000
#06312:2300001300000013
#0631b:23000013
#0641b:0013001300000013
#06416:00130000
#06412:0013
#06418:0000000000130000
#06415:00000013
#00915:0000001313000000
#00918:2313000000001313
#00912:24
#01012:0000000000130000
#01018:0000000013000013
#01015:0013130000001300
#0081a:14140014
#00812:14001414
#00814:00140000
#00818:0014
#01515:1300130000130000
#0151b:23231300
#01518:00000013
#01512:0000000000000013
#0161a:00000014
#01615:13001313
#01612:00130000
#02319:00130000
#02317:13
#0231b:0013
#02318:0000000000130000
#02315:00000013
#02312:2300230013000013
#02412:00130013
#02415:0000001300000000
#0241b:00130013
#02418:0000001300000000
#02417:14
#02717:1313
#02716:00130013
#02712:13
#0281a:14
#02817:00140000
#02812:00131400
#02815:00000014
#0281b:00000013
#03115:0013000000000000
#03118:00130000
#0311b:2300001300000000
#03114:0013
#03117:0000000000130000
#0311a:00000013
#03113:0000000000000013
#03112:23
#03216:13000053
#0321b:13000053
#03212:00131300
#03217:00131300
#03219:0000000000530000
#03214:0000000000530000
#0371b:13130000
#03719:00001313
#03812:13000014
#03816:0000130000140000
#0381a:0014
#03817:13
#0381b:00130000
#03912:13130000
#03914:00001313
#0401b:13
#04017:00130000
#04016:13000013
#04012:00131300
#04612:13000013
#0461b:00131300
#04616:0013
#04617:23000013
#04610:41
#04817:00130000
#04812:23130000
#04819:0013
#04814:0013
#04816:00000013
#0481b:23000013
#04912:13000013
#0491b:00131300
#04916:0013
#04917:00000013
#0491a:24
#05112:1313
#0511b:00130000
#05117:2313
#0501b:13000013
#05012:00131300
#05017:0013
#05016:23000013
#05214:00130000
#05219:00130000
#05212:24002424
#0521a:24002424
#05317:00130000
#05312:24130000
#05316:0013
#05319:00000013
#05314:00000013
#0531b:13
#0551b:1313
#05512:00130000
#05516:2313
#05414:00000013
#05419:00000013
#05416:00130000
#0541b:00130000
#05417:2313
#05412:13
#05617:00130000
#05612:23130000
#05619:0013
#05614:0013
#05616:00000013
#0561b:23000013
#05716:00130000
#0571b:00130000
#05717:2313
#05712:13
#05719:00000013
#05714:00000013
#05817:00130000
#05812:00130014
#05816:2313
#0581b:13
#0681b:0013000013000000
#06818:00230013
#0001a:24242424
#0455b:53
#04557:0013
#04552:1413
#0475b:5353
#04752:00630013
#04756:0053
#04757:00000013
#05952:0000000000000053
#07058:00000013
#07052:00000013
#04252:5353
#0425b:00630000
#04256:00000023
#04257:0013
#04357:64
#0435b:0000002300000000
#04352:63
#04356:0000002300000000
#0215b:13
#0225b:00634300
#02258:0000002300000000
#02252:00533300
#02255:1400002300000000
#02557:53
#02556:00630000
#01952:53
#0195b:00630000
#01955:0053
#01957:00000063
#02052:63
#00157:0053
#0015b:0000000000000063
#00356:0063
#00352:0000000000000053
#00558:0053
#00555:0063000000000063
#0055a:14
#00658:00530000
#01256:53
#01252:0063
#01257:0063
#0125b:13
#02656:63
#02657:00530000
#03452:53
#0345b:00630000
#03455:0053
#03457:00000063
#03552:5300000000230000
#03558:0000002300006300
#03555:0023000063001300
#0355b:00630000
#0365b:23
#06052:00000013
#0615b:0000000000000063
#0625b:00000013
#06352:0000000000000053
#0075b:53
#00955:0063
#00958:0053000000000053
#00952:14
#01055:00630000
#00852:14
#00854:00140000
#00858:0014
#0085a:00000014
#01452:00000014
#01352:13
#0165a:00000014
#02452:00533300
#02455:0000002300000000
#0245b:00634300
#02458:0000002300000000
#02457:14
#02757:5353
#02756:00630063
#0285a:64
#02857:00240000
#02852:1354
#02855:00000024
#0305b:00130000
#03052:13
#0325b:13
#03252:00130000
#03852:63
#03856:00230000
#0405b:5343
#04057:00230000
#04056:00000023
#04052:0053
#04152:34
#0415a:44
#02952:34
#03354:13
#03359:13
#04652:63
#04656:0013
#0465b:0013
#04952:63
#04956:0013
#0495b:0013
#0495a:14
#05152:6363
#0515b:00530013
#05157:0063
#05156:00000013
#0505b:53
#05057:0013
#05052:0013
#05357:00530000
#05356:0013
#05352:14
#0535b:5313
#0555b:5353
#05552:00630013
#05556:0053
#05557:00000013
#05456:00630000
#05457:0013
#05452:6313
#05756:00630000
#05757:0013
#05752:6313
#05857:00530000
#05856:0013
#0585b:5313
#06558:0000000000000013
#0675b:13
#06858:00000013
#001370:0013
#0013b0:00000023
#0013b0:0000000000000013
#002370:0023000000000000
#003360:0013
#003320:00000023
#003320:0000000000000013
#004360:0023000000000000
#005350:0013000000000000
#005320:0023
#005381:0013
#0053b1:0000000000000023
#005350:0000000000000013
#006320:00230000
#006381:00130000
#0063b1:0023
#0073b1:13
#007371:00230000
#009381:0013000000000000
#0093b1:0023
#009350:0013
#009320:0000000000000023
#009381:0000000000000013
#0103b1:00230000
#010350:00130000
#010320:0023
#011320:13
#011350:00230000
#011381:00130000
#0113b1:0023
#011320:0013
#011350:00000023
#011381:00000013
#0123b1:23
#012360:13000023
#012320:0033
#012371:0013
#0123b1:00000023
#014321:1424
#014351:00340000
#0163a1:1424
#016371:00340000
#019321:13
#019361:00230000
#0193b0:00130000
#019380:0023
#019351:0013
#019321:00000023
#019370:00000013
#0203b0:23
#020321:13
#020361:00532300
#0203b0:00132300
#0223b0:00132300
#022380:0000005300000000
#022321:00132300
#022351:0000005300000000
#024321:00132300
#024351:0000005300000000
#0243b0:00132300
#024380:0000005300000000
#025370:13
#0253b0:00230000
#025361:00130000
#025321:0023
#026361:13
#026321:00230000
#026370:00130000
#0263b0:0023
#027370:13
#0273b0:00230000
#027361:00130000
#027321:0023
#027370:0013
#0273b0:00000023
#027361:00000013
#028321:23
#0283a0:1424
#028370:00540000
#028321:0014
#028351:00000054
#029321:24
#034321:13
#034361:00230000
#0343b0:00130000
#034380:0023
#034351:0013
#034321:00000023
#034370:00000013
#0353b0:23
#035321:13230000
#035351:0053000000000000
#0353b0:00132300
#035380:0000005300000000
#035351:00001323
#035321:0000000000530000
#035380:00000013
#0363b0:53
#036370:00230000
#037360:13230000
#037340:00001323
#038320:1323
#038360:00530000
#039370:13230000
#039390:00001323
#0403b0:1323
#040370:00530000
#040321:0013
#040361:00000053
#041321:24
#042321:13
#042361:00230000
#0423b0:00130000
#042370:0023
#042321:0013
#042361:00000053
#043321:33000023
#043361:0000005300000000
#043370:14000024
#0433b0:0000005300000000
#0453b0:13
#045370:00230000
#046320:13
#046360:00230000
#0473b0:13
#047370:00230000
#047321:00130023
#047361:0033
#0473b0:0013
#047370:00000023
#049320:13
#049360:00230000
#0503b0:13
#050370:00230000
#051320:13
#051360:00230000
#0513b1:00130023
#051371:0033
#051320:0013
#051360:00000023
#0533b0:1323
#053370:00330000
#054320:1323
#054360:00330000
#0553b0:13
#055370:00230000
#055321:00130023
#055361:0033
#0553b0:0013
#055370:00000023
#057320:1323
#057360:00330000
#0583b0:1323
#058370:00330000
#059320:0000000000000013
#060360:0023000000000000
#0613b0:0000000000000013
#062370:0023000000000000
#063320:0000000000000013
#064360:0023000000000000
#065320:0000000000000013
#066320:0023000000000000
#067320:1353535353535353
#067330:00530053005300530053005300530053
#068320:5353535353535353
#068330:00530053005300530053005300530053
#069320:5353535353535353
#069330:00530053005300530053005300530053
#070320:5353535353532300
#070330:00530053005300530053005300000000
#007970:0000001300000000
#0079b0:0023
#030960:0013
#030920:00000023
#0309b1:0013
#030971:00000023
#032971:0013
#0329b1:00000023
#032920:0013
#032960:00000023
