This file was generated by Ched 2.7.0.0.
#TITLE ""
#ARTIST ""
#DESIGNER ""
#DIFFICULTY 0
#PLAYLEVEL
#SONGID ""
#WAVE ""
#WAVEOFFSET 0
#JACKET ""
#REQUEST "ticks_per_beat 480"
#00002: 4
#BPM01: 123
#00008: 01
#TIL00: ""
#VOLUME: ""
#HISPEED 00
#MEASUREHS 00
#05415:00000016
#06212:14000014
#06213:00140000
#06214:0014
#0621a:24000014
#06219:00240000
#06218:0024
#0101a:00001200000000000000000000120000
#01018:00000000120000000000001200000000
#01016:0000001200001200
#01014:0000000000120000
#01112:12525200000000000000000000000000
#01118:00001252520000000000000000000000
#01114:00000000125252000000120000000000
#0111a:00000000000012525200000000001200
#01116:0012
#01117:00000012
#01212:1313
#0121b:00000013000000001300000000001300
#01215:00130013
#01218:23000000000013000000001300000000
#01312:1313
#0131b:00000013000000001300000000001300
#01315:00130013
#01318:13000000000013000000001300000000
#01418:1300001200000000
#01414:00001200000000120000000000000000
#01416:0000120000120000
#0141a:00000000000000000012000000000000
#01410:41
#0151a:12520000
#01516:0000001200000000
#01519:00520052000000000000000000000000
#01518:0052000000000000
#01513:00000000000000000052000000000000
#01514:00000000000000005200005200000000
#01515:00000000000000520000000000520000
#0161b:1313
#01612:00000013000000001300000000001300
#01618:00130013
#01615:23000000000013000000001300000000
#0171b:1313
#01712:00000013000000001300000000001300
#01718:00130013
#01715:13000000000013000000001300000000
#01918:13131300
#01915:0013001300000000
#01917:00000012
#01912:24242400
#0191a:0024002400000000
#02015:00001300000000001300001300000000
#02018:0000130000130000
#02012:13
#0201b:0000001300000000
#0201a:24
#02118:1300000000000000000000001300000000000000000000000000001300000000
#02115:0013000000130000
#02112:00130000
#0211b:00000000000000002300001300000000
#02216:13
#02214:0013000000000000
#02217:0000130000000013
#02219:0000001300000000
#02212:00130000
#02215:00000000000000001300001300000000
#0221b:0013
#02210:41
#02812:1212131314141515
#0281b:0000232300000000
#0281a:0000000024240000
#0281c:2222000000000000
#02819:0000000000002525
#04515:00000013000000000000000013000000
#04512:0000000000000000000000000000000013333300000000000000000000000000
#0451b:1300000000000000000000000000000013333300000000000000000000000000
#04518:0000001300001300
#0461b:00000000130000000000001300000000
#04618:2613
#04615:0000000000130013
#04616:00130000
#04612:26
#0461f:21
#04610:0041
#04718:2323000000230013
#0471b:0000232300000000
#04715:0023
#04712:00000000000000000000002300000000
#04814:0013000000000000
#04816:0000130000000013
#0481b:13130000
#04817:00000000000000001300001300000000
#04812:1300000013130000
#04819:0000001300000000
#04917:0013000000000000
#04916:0000001300000000
#04914:00000014
#04912:14241400
#0491a:24142400
#04918:00000024
#00218:00000000000000001300000000130000
#0021b:13
#00215:00000013000000000000001300000000
#00212:0000000000000000000000130000000000000000000000000000000013000000
#03416:14141414
#03412:1252525200520000
#03414:0000000000000052
#03516:14141414
#03512:0052000000525252
#03514:0000005200000000
#03616:14141414
#03610:41
#03612:0000005200000052
#03614:0052000000520000
#03716:14141414
#03714:0052000000525252
#03712:0000005200000000
#02919:00000015
#02917:22222200
#02912:00000025
#06112:23000013000000000000000013000000
#06117:00130000
#06115:0000000000000013
#06119:0000001300000000
#06118:23000000000000000000000000130000
#0611b:00000000000000002300001300000000
#05916:0013
#05917:00130000
#05918:00000000000000000000001300001300
#05912:00000013000000000000000013000000
#05919:0000001300000000
#0591b:0023
#00915:00001300000000130000000000000000
#00918:00000013000013000000000014000000
#00914:00000014
#00912:00230000
#0091b:2323
#03018:00000013000000000000000000000000
#0301b:2300001300001300
#03012:0013
#03016:00000013
#03015:00000000000000000000003300000000
#03014:0000000000000033
#03010:41
#03218:00000013000000000000000000000000
#0321b:0000001300001300
#03216:00000013
#03212:0013
#03215:00000000000000000000003300003300
#03318:00001300000000130000000014000000
#03315:00000013000013000000000000000000
#03314:00000014
#03312:23232300
#0331b:23232300
#05218:1212121213141516
#05216:2222222200000000
#05215:0023
#05214:0000000000240000
#05213:00000025
#05212:0000000000000026
#00315:00000013000000001300000000000000
#0031b:1313
#00318:00000000000013000000001300000000
#0031a:00000000000000000033000000000000
#00415:00000000000000001300000000130000
#00412:13
#00418:00000013000000000000001300000000
#0041b:0000000000000000000000130000000000000000000000000000000013000000
#00518:00000013000000001300000000000000
#00512:13000024
#0051a:00000024
#0061b:0000001300001300
#00618:00000013000000001300000000000000
#00615:00000000130000000000003300000000
#00616:00000013
#00612:0013
#0061a:24
#00614:0000000000000033
#00610:41
#00712:0000001300001300
#00715:00000013000000001300000000000000
#00718:00000000130000000000003300000000
#00717:00000013
#0071b:0013
#00719:0000000000000033
#00818:00000013000013000000000000000000
#00815:00130000
#00817:00000013
#00812:00000013
#00816:0013
#0081b:0013
#00814:0000000000000033
#00813:00000000000000000000003300000000
#02418:00001300000000001300001300000000
#02415:0000130000130000
#0241b:13
#02412:2400001300000000
#02515:1300000000000000000000001300000000000000000000000000001300000000
#02518:0013000000130000
#0251b:00130000
#02512:00000000000000002300001300000000
#02617:13
#02619:0013000000000000
#02616:0000130000000013
#02614:0000001300000000
#0261b:00130000
#02618:00000000000000001300001300000000
#02612:0013
#02312:14
#02318:0014000000001400
#02314:00140024
#0231a:0000001400000000
#02316:0014
#0271a:14
#02714:0014000000001400
#02718:00140024
#02712:0000001400000000
#02716:0014
#03115:00000013000000000000000000000000
#03112:0000001300001300
#0311b:0013
#03117:00000013
#03118:00000000000000000000003300000000
#03119:0000000000000033
#03816:00141414
#0381a:1252000000520000
#0381f:11
#03814:52
#0381c:0000005200000052
#03916:14141414
#0391a:0052525200000000
#0391c:0000000000525252
#04016:14141414
#0401a:0052525200000000
#0401c:0000000000525252
#04116:14141414
#0411a:0052525200000000
#0411c:0000000000520052
#04215:00000000000000001300000000130000
#04212:13
#04218:00000013000000000000001300000000
#0421b:0000000000000000000000130000000000000000000000000000000013000000
#04318:00000013000000001300000000000000
#04312:1313
#04315:00000000000013000000001300000000
#04313:00000000000000000033000000000000
#04418:00000000000000001300000000130000
#0441b:13
#04415:00000013000000000000001300000000
#04412:0000000000000000000000130000000000000000000000000000000013000000
#05012:1212121213141516
#0501c:2222222200000000
#0501b:0023
#0501a:0000000000240000
#05019:00000025
#05018:0000000000000026
#06017:0013
#06016:00130000
#06015:23000000000000000000001300001300
#0601b:23000013000000000000000013000000
#06014:0000001300000000
#06012:0023
#05312:00000016
#05317:22222200
#05318:00000026
#05118:00000016
#05117:22222200
#05112:00000026
#01812:2525000000000000
#01819:2525000000000000
#05513:25
#05518:25
#01252:6363
#01255:00630063
#01258:13
#01352:6363
#01355:00630063
#0165b:5353
#01658:00530053
#01655:13
#0175b:5353
#01758:00530053
#0205a:14
#02055:00000000000000001300002300000000
#02058:00630000
#0205b:0000002300000000
#02158:5300000000000000000000000000000000000000000000000000002300000000
#02152:00630000
#0215b:00000000000000001300005300000000
#00258:0063
#0025b:53
#00255:00000053000000000000000000000000
#00252:0000000000000000000000230000000000000000000000000000000000000000
#04552:0023
#0455b:5323
#04558:00000053
#04555:00000053000000000000000053000000
#0625a:14
#06259:00140000
#06258:0014
#06252:14
#06253:00140000
#06254:0014
#02959:00000015
#02952:00000015
#05956:0053
#05953:15
#05958:15
#06152:13
#0605b:13
#06057:0063
#00958:00000014
#00952:00130000
#0095b:1313
#00954:00000014
#03256:00000023
#03252:0063
#0325b:13
#03352:1313
#0335b:00130000
#03354:00000014
#03358:00000014
#0225b:0063
#02255:00000000000000001300006300000000
#00355:00000053000000000000000000000000
#0035b:5353
#00358:00000000000000000000005300000000
#00455:0053
#00452:63
#00458:00000063000000000000000000000000
#0045b:0000000000000000000000230000000000000000000000000000000000000000
#00558:00000063000000001300000000000000
#00552:63
#00555:0013
#0065a:14
#00656:00000023
#00652:0053
#00852:00000023
#00856:0063
#00757:00000023
#0075b:0063
#01458:13
#02458:00000000000000001300002300000000
#02455:00530000
#02452:1400002300000000
#02555:6300000000000000000000000000000000000000000000000000002300000000
#0255b:00530000
#02552:00000000000000001300006300000000
#02658:00000000000000001300005300000000
#02652:0053
#02352:14
#02354:00140034
#02356:0014
#02358:00000044
#0275a:14
#02758:00140044
#02756:0014
#02754:00000034
#03052:0053
#03056:00000023
#0305b:13
#0315b:0063
#03157:00000023
#03152:13
#04255:0053
#04252:63
#04258:00000063000000000000000000000000
#0425b:0000000000000000000000230000000000000000000000000000000000000000
#04358:00000063000000000000000000000000
#04352:6363
#04355:00000000000000000000006300000000
#04458:0063
#0445b:53
#04455:00000053000000000000000000000000
#04452:0000000000000000000000230000000000000000000000000000000000000000
#04652:16
#04658:1613
#04656:00530000
#0465b:00000000000000000000005300000000
#04857:00000000000000001300005300000000
#04952:1414
#0495a:00140000
#04958:00000044
#04954:00000034
#04755:0013
#04752:00000000000000000000005300000000
#05352:00000016
#05358:00000016
#05158:00000016
#05152:00000016
#0023b0:13
#002380:00000023000000000000000000000000
#002351:00000013000000002300000000000000
#002321:0000000000000000000000530000000000000000000000000000000000000000
#002380:0013
#0023b0:00000000000000000000002300000000
#0033b0:13
#003380:00000023000000000000000000000000
#003351:00000013000000000000000000000000
#003321:0000002300000000
#0033b1:0013
#0033a1:00000000000000000033000000000000
#003381:00000000000000000000003300000000
#0043b1:23
#004320:13
#004350:00000023000000000000000000000000
#004381:00000013000000002300000000000000
#0043b1:0000000000000000000000530000000000000000000000000000000000000000
#004350:0013
#004320:00000000000000000000002300000000
#005320:13
#005350:00000023000000000000000000000000
#005381:00000013000000000000000000000000
#0053b1:0000002300000000
#005350:0000001323000000
#006350:13000023000000000000000000000000
#006320:0013
#006350:00000000000000000000003300000000
#006360:00000053
#006340:0000000000000033
#007320:23
#007381:13000023000000000000000000000000
#0073b1:0013
#007381:00000000000000000000003300000000
#007371:00000053
#007391:0000000000000033
#0083b1:23
#008350:13000023000000000000000000000000
#008360:0013
#008330:00000000000000000000003300000000
#008320:00000053
#008340:0000000000000033
#009360:23
#010380:0000000012220000
#012320:13
#012350:00000023000000000000000000000000
#012350:00130000
#012320:0000002300000000
#012320:0013
#012350:00000000000000000000002300000000
#012350:00000013
#012320:0000000000000023
#013320:13
#013350:00000023000000000000000000000000
#013350:00130000
#013320:0000002300000000
#013320:0013
#013350:00000000000000000000002300000000
#013350:00000013
#013320:0000000000000023
#014380:00000000000000000000001200220000
#014341:00000000000000000000000000120000
#015341:22
#0163b1:13
#016381:00000023000000000000000000000000
#016381:00130000
#0163b1:0000002300000000
#0163b1:0013
#016381:00000000000000000000002300000000
#016381:00000013
#0163b1:0000000000000023
#0173b1:13
#017381:00000023000000000000000000000000
#017381:00130000
#0173b1:0000002300000000
#0173b1:0013
#017381:00000000000000000000002300000000
#017381:00000013
#0173b1:0000000000000023
#020381:00132300
#0203b1:0000005300000000
#020351:00000000000000000000001300000000
#021321:23
#021380:13
#0213b0:0053230000000000
#021321:00130000
#021351:0000005323000000
#0213b1:00000000000000000000001300000000
#021381:0000000000000000000000000000000000000000000000000000005300000000
#0223b1:23
#0223b1:0013
#022381:00000000000000000000002300000000
#022350:00000000000000000000001300000000
#022320:0000000000000023
#024350:00132300
#024320:0000005300000000
#024380:00000000000000000000001300000000
#0253b0:23
#025351:13
#025321:0053230000000000
#0253b0:00130000
#025380:0000005323000000
#025320:00000000000000000000001300000000
#025350:0000000000000000000000000000000000000000000000000000005300000000
#026320:23
#026320:0013
#026350:00000000000000000000002300000000
#026381:00000000000000000000001300000000
#0263b1:0000000000000023
#030321:13000023000000000000000000000000
#030351:0000132300000000
#030321:0013
#030351:00000000000000000000003300000000
#030361:00000053
#030341:0000000000000033
#031321:23
#0313b0:13000023000000000000000000000000
#031380:0000132300000000
#0313b0:0013
#031380:00000000000000000000003300000000
#031370:00000053
#031390:0000000000000033
#0323b0:23
#032321:13
#032351:00000023000000000000000000000000
#032351:00130000
#032321:0000002300000000
#032321:0013
#032351:00000000000000000000003300003300
#032361:00000053
#033321:23
#042321:13
#042351:00000023000000000000000000000000
#042380:00000013000000002300000000000000
#0423b0:0000000000000000000000530000000000000000000000000000000000000000
#042351:0013
#042321:00000000000000000000002300000000
#043321:13
#043351:00000023000000000000000000000000
#043380:00000013000000000000000000000000
#0433b0:0000002300000000
#043320:0013
#043330:00000000000000000033000000000000
#043350:00000000000000000000003300000000
#044320:23
#0443b1:13
#044381:00000023000000000000000000000000
#044350:00000013000000002300000000000000
#044320:0000000000000000000000530000000000000000000000000000000000000000
#044381:0013
#0443b1:00000000000000000000002300000000
#0453b1:13
#045381:00000023000000000000000000000000
#045350:00000013000000000000000000000000
#045320:0000002300000000
#045320:0000000000000000000000000000000013333300000000000000000000000000
#045350:00000033
#046320:26
#0453b1:0000000000000000000000000000000013333300000000000000000000000000
#045381:00000033
#046381:26
#046361:00130000
#046321:0023
#0463b1:00000000000000000000001300000000
#046381:0000000000000023
#047321:1323000000000000
#047351:0000132300000000
#047321:00000000000000000000001300000000
#047351:0000000000000023
#048371:00000000000000000000001300000000
#0483b1:0000000000000023
#055331:155555555555555555555555555555555555555555555555
#055321:005500550055005500550055005500550055005500550055005500550055005500550055005500550055005500550055
#056331:555555555555555555555555555555555555555555555555
#056321:005500550055005500550055005500550055005500550055005500550055005500550055005500550055005500550055
#057331:555555555555555555555555555555555555555555555555
#057321:005500550055005500550055005500550055005500550055005500550055005500550055005500550055005500550055
#058331:555555555555555555555555555555555555555555555555
#058321:005500550055005500550055005500550055005500550055005500550055005500550055005500550055005500550055
#059331:25
#055380:155555555555555555555555555555555555555555555555
#055390:005500550055005500550055005500550055005500550055005500550055005500550055005500550055005500550055
#056380:555555555555555555555555555555555555555555555555
#056390:005500550055005500550055005500550055005500550055005500550055005500550055005500550055005500550055
#057380:555555555555555555555555555555555555555555555555
#057390:005500550055005500550055005500550055005500550055005500550055005500550055005500550055005500550055
#058380:555555555555555555555555555555555555555555555555
#058390:005500550055005500550055005500550055005500550055005500550055005500550055005500550055005500550055
#059380:25
#059360:0013
#059320:00000000000000000000002300000000
#060370:0013
#0603b0:00000000000000000000002300000000
#061350:00000000000000001300002300000000
#011920:1222000000000000
#011981:0012220000000000
#011940:0000122200000000
#0119a1:0000001222000000
#0159a1:12220000
#015981:0052000000000000
#015961:0000001200000000
#015931:00000000000000000052000000000000
#015941:00000000000000000000005200000000
#015951:00000000000000000000000000220000
#034921:1200000000520000
#034941:0000000000000052
#035921:0052000000520052
#035941:0000005200000000
#036941:0052000000520000
#036921:0000005200000052
#037941:0052000000520000
#037921:0000005200000000
#038941:22
#0389a0:1252000000520000
#0389c0:0000005200000052
#0399a0:0052005200000000
#0399c0:0000000000520052
#0409a0:0052005200000000
#0409c0:0000000000520052
#0419a0:0052005200000000
#0419c0:0000000000520022
