This file was generated by Ched 2.7.0.0.
#TITLE ""
#ARTIST ""
#DESIGNER ""
#DIFFICULTY 0
#PLAYLEVEL
#SONGID ""
#WAVE ""
#WAVEOFFSET 0
#JACKET ""
#REQUEST "ticks_per_beat 480"
#00002: 4
#BPM01: 123
#00008: 01
#TIL00: ""
#VOLUME: ""
#HISPEED 00
#MEASUREHS 00
#05416:00000014
#01018:12005200520052005200525252520000
#01416:12005200520052520052525200520000
#01410:41
#01918:0026002600001300
#01912:26262600
#02018:00001300000000000000001300000000
#02015:0000130000130000
#0201b:0013
#02012:23
#02212:0013000000000000
#02218:00130000
#02215:0000001300000000
#02210:41
#02812:1313131314141414
#0281b:2323232300000000
#0281a:0000000024242424
#0461b:00130000
#04618:23000000000000001300001300000000
#04615:2300000000130000
#04612:00130000
#0461f:21
#04610:0041
#04815:0013000000000000
#04818:00130000
#04812:0000001300000000
#0481b:13
#04916:0014001400000000
#04914:00000014
#04918:00000024
#04912:2424
#0491a:00240000
#00518:0013
#00512:1313131300000000
#02112:0000001300000000
#02118:00000000130000000000001300000000
#02115:0013000000130000
#0211b:0023
#00915:00130000
#0091b:00000013
#00912:24002413
#00918:0013
#0091a:00240000
#0511a:00000014
#05118:2222
#05116:00220000
#05112:00000024
#00615:0000001300000000
#00618:00130000
#0061b:0013
#00612:24
#00610:41
#02312:14
#02318:0014000000001400
#02314:00140024
#0231a:0000001400000000
#02316:0014
#03418:1252525200520000
#0341a:0000000000000052
#05012:1313131314141414
#0501b:2323232300000000
#0501a:0000000024242424
#0021b:1313131300000000
#00215:00001313
#00218:0000000000130013
#00312:1313131300000000
#00318:00001313
#00315:0000000000130013
#0041b:1313131300000000
#00415:00001313
#00418:0000000000130013
#00715:0000001300000000
#0071b:00130000
#00718:0013
#00712:24
#00815:0000001300000000
#00818:00130000
#0081b:0013
#00812:24
#01218:00000013000000000000000013000000
#0121b:0013
#01215:00000000130000000000001300000000
#01212:23
#01312:13
#01318:00000013000000000000000013000000
#0131b:0013
#01315:00000000130000000000001300000000
#01615:00000013000000000000000013000000
#01612:0013
#01618:00000000130000000000001300000000
#0161b:23
#0171b:13
#01715:00000013000000000000000013000000
#01712:0013
#01718:00000000130000000000001300000000
#02415:00001300000000000000001300000000
#02418:0000130000130000
#02412:0013
#0241b:23
#0261b:0013000000000000
#02615:00130000
#02618:0000001300000000
#0251b:0000001300000000
#02515:00000000130000000000001300000000
#02518:0013000000130000
#02512:0023
#0271a:14
#02714:0014000000001400
#02718:00140024
#02712:0000001400000000
#02716:0014
#03318:00130000
#03312:00240013
#0331b:00000013
#03315:0013
#0331a:2424
#03018:0000001300000000
#03015:00130000
#03012:0013
#0301a:24
#03010:41
#03118:0000001300000000
#03112:00130000
#03115:0013
#0311a:24
#03218:0000001300000000
#03215:00130000
#03212:0013
#0321a:24
#0421a:14
#04218:00140000
#04216:0014
#04214:00000014
#04312:14
#04314:00140000
#04316:0014
#04318:00000014
#0431a:14
#0441a:14
#04418:00140000
#04416:0014
#04414:00000014
#04412:14
#04512:14000013
#04514:00140000
#04516:0014
#0451b:00000013
#0451a:14
#05312:00000014
#05316:2222
#05318:00220000
#0531a:00000024
#0521b:1313131300000000
#0521a:0000000014141414
#05212:2323232324242424
#06212:00001414
#0621a:24000014
#06213:00140000
#06219:00240000
#06218:0024
#05918:00000014000014000000000000000000
#05914:00141400
#05912:00000014
#06014:00000014000014000000000000000000
#06018:00141400
#0601a:24000014
#06118:00000014000014000000000000000000
#06114:00141400
#06112:24000014
#03816:0012000000520000
#0381f:11
#03814:0000005200000052
#01812:2424000000000000
#0181a:2424000000000000
#02918:2222
#02916:00220000
#02912:00000024
#04715:00000000230000002300002300000000
#04712:23
#04718:0023000000230000
#0471b:0000002300000000
#05513:24
#05519:24
#03610:41
#03618:0000005200000052
#0361a:0052000000520000
#0111a:52525252525252525200520052005200
#01514:52525252520052525252005200520000
#03518:0052000000525252
#0351a:0000005200000000
#0371a:0052000000525252
#03718:0000005200000000
#03916:0052525200000000
#03914:0000000000525252
#04016:0052525200000000
#04014:0000000000525252
#04116:0052525200000000
#04114:0000000000520052
#02052:13
#02058:00000000000000000000005300000000
#00558:0053
#0055b:00000013
#0095b:00000013
#00952:00000013
#05152:00000014
#0515a:00000014
#02158:00000000000000000000005300000000
#00652:14
#0065b:0053
#02952:00000014
#04658:13000000000000000000005300000000
#04655:13
#05953:14
#05959:14
#05954:0064
#05952:00000024
#00758:0063
#0085b:0053
#01252:13
#0165b:13
#02354:00000014
#02358:00000014
#02555:00000000000000000000006300000000
#02754:00000014
#02758:00000014
#02455:00000000000000000000006300000000
#0245b:13
#03352:00000013
#0335b:00000013
#03052:0063
#0305a:14
#03155:0053
#03252:0063
#0455b:00000063
#04552:00000053
#04755:00000000000000000000005300000000
#04954:00000014
#04958:00000014
#05352:00000014
#0535a:00000014
#0625a:14
#06259:00140000
#06258:0014
#06254:14
#06252:0014
#06253:00140000
#06058:0054
#0605a:00000024
#06154:0064
#06152:00000024
#005380:0013
#0053b0:00000023
#0063b0:0013
#007380:23
#007380:0013
#0083b0:23
#0083b0:0013
#009380:23
#020380:00000000000000000000001300000000
#0213b0:23
#021380:00000000000000000000001300000000
#0223b0:23
#0223b0:0000000013000023
#022380:00000000000000000000003300000000
#024350:00000000000000000000001300000000
#025320:23
#025350:00000000000000000000001300000000
#026320:23
#026320:0000000013000023
#026350:00000000000000000000003300000000
#030320:0013
#031350:23
#031350:0013
#032320:23
#032320:0013
#033350:23
#0453b0:00000013
#046380:23
#045321:00000013
#046351:23
#046381:00000000000000000000001300000000
#0473b1:23
#047351:00000000000000000000001300000000
#048321:23
#048381:0000000013000023
#0483b1:00000000000000000000003300000000
#055331:145454545454545454545454545454545454545454545454
#055321:005400540054005400540054005400540054005400540054005400540054005400540054005400540054005400540054
#056331:545454545454545454545454545454545454545454545454
#056321:005400540054005400540054005400540054005400540054005400540054005400540054005400540054005400540054
#057331:545454545454545454545454545454545454545454545454
#057321:005400540054005400540054005400540054005400540054005400540054005400540054005400540054005400540054
#058331:545454545454545454545454545454545454545454545454
#058321:005400540054005400540054005400540054005400540054005400540054005400540054005400540054005400540054
#059331:24
#055390:145454545454545454545454545454545454545454545454
#0553a0:005400540054005400540054005400540054005400540054005400540054005400540054005400540054005400540054
#056390:545454545454545454545454545454545454545454545454
#0563a0:005400540054005400540054005400540054005400540054005400540054005400540054005400540054005400540054
#057390:545454545454545454545454545454545454545454545454
#0573a0:005400540054005400540054005400540054005400540054005400540054005400540054005400540054005400540054
#058390:545454545454545454545454545454545454545454545454
#0583a0:005400540054005400540054005400540054005400540054005400540054005400540054005400540054005400540054
#059390:24
#059340:0014
#059320:00000054
#060340:24
#060380:0014
#0603a0:00000054
#061380:24
#061340:0014
#061320:00000054
#062340:24
#010980:12000000000000000000000000520000
#0119a0:52000000000000000052005200522200
#014960:12000000000000000000000000520000
#015940:52000000005200000000520052220000
#034980:1200000000520000
#0349a0:0000000000000052
#035980:0052000000520052
#0359a0:0000005200000000
#0369a0:0052000000520000
#036980:0000005200000052
#0379a0:0052000000520022
#037980:0000005200000000
#038960:0012000000520000
#038940:0000005200000052
#039960:0052005200000000
#039940:0000000000520052
#040960:0052005200000000
#040940:0000000000520052
#041960:0052005200000000
#041940:0000000000520022
