This file was generated by Ched 2.7.0.0.
#TITLE ""
#ARTIST ""
#DESIGNER ""
#DIFFICULTY 0
#PLAYLEVEL
#SONGID ""
#WAVE ""
#WAVEOFFSET 0
#JACKET ""
#REQUEST "ticks_per_beat 480"
#00002: 4
#BPM01: 123
#00008: 01
#TIL00: ""
#VOLUME: ""
#HISPEED 00
#MEASUREHS 00
#00314:1414
#00512:1414
#00614:00140000
#0061a:2414
#00610:41
#00714:00140000
#00718:0014
#00814:00140000
#0081a:0014
#00914:00140000
#00918:0014
#00912:00000014
#01214:00140000
#01218:0014
#01212:00000014
#0131a:14
#01314:00140000
#01318:0014
#01312:00000014
#0191a:14141400
#01912:24242400
#02014:00140000
#0201a:24
#02112:14
#02118:00140000
#0221a:14
#02214:00140000
#02210:41
#02312:14
#02318:00140000
#02314:0014
#0231a:00000014
#02418:00140000
#02412:24
#0251a:14
#02514:00140000
#02612:14
#02618:00140000
#0271a:14
#02714:00140000
#02718:0014
#02712:00000014
#0281a:0034341434000000
#02818:14
#02819:0000000000340000
#05714:14
#05718:14
#05918:00140000
#05914:0014
#06014:00140000
#06018:0014
#0601a:14
#06118:00140000
#06112:14
#06114:0014
#06213:00000014
#06219:00000014
#0621a:24
#06216:00240000
#06212:0024
#01614:00140000
#01618:0014
#01612:00000014
#0171a:14
#01714:00140000
#01718:0014
#01712:00000014
#03018:00140000
#03012:1414
#03010:41
#03118:00140000
#03114:0014
#03218:00140000
#03212:0014
#03318:00140000
#03314:0014
#0331a:00000014
#04214:1414
#04318:1414
#04412:1414
#0451a:1414
#04618:00140000
#04612:24
#0461f:21
#04610:0041
#0471a:14
#04714:00140000
#04812:14
#04818:00140000
#0491a:14
#04916:00140000
#04912:0014
#04918:00000014
#05012:0034341434000000
#05014:14
#05013:0000000000340000
#0521a:0034341434000000
#05218:14
#05219:0000000000340000
#03412:14
#03414:0054
#03413:00540054
#0381a:14
#0381f:11
#03818:0054
#03819:00540054
#0041a:1414
#00218:1414
#01818:26
#01812:0026000000000000
#02918:00000024
#02914:24242400
#05114:00000024
#05118:24242400
#05318:00000024
#05314:24242400
#05512:24
#0551a:24
#03610:41
#03613:00540054
#03612:54
#03614:0054
#01410:41
#03512:54
#03513:00540054
#03514:0054
#03712:54
#03713:00540000
#03714:00005454
#0391a:54
#03919:00540054
#03918:0054
#04019:00540054
#0401a:54
#04018:0054
#0411a:54
#04119:00540000
#04118:00005454
#0065a:1454
#00758:0054
#0085a:0054
#0125a:14
#0165a:14
#0205a:14
#0235a:00000014
#02752:00000014
#02958:00000014
#0285a:0000002400000000
#02858:54
#05754:54
#05758:54
#06058:0064
#05954:0054
#05952:14
#0595a:14
#06154:0054
#00958:1414
#00954:00140000
#03052:0064
#03154:0064
#03252:0064
#03358:00140000
#03354:1414
#04958:00000014
#05052:0000002400000000
#05054:64
#0525a:0000002400000000
#05258:54
#04652:14
#05154:00000014
#05358:00000014
#0555a:64
#05552:64
#0063a0:0014
#007380:24
#007380:0014
#0083a0:24
#0083a0:0014
#009380:24
#0103a0:14
#0123a0:24
#0143a0:14
#0163a0:24
#020380:00001424
#021340:00001424
#022380:00001424
#024340:00001424
#025380:00001424
#026340:00001424
#028380:14000024
#0283a0:0034343434000000
#028390:0000000000340000
#030320:0014
#031340:24
#031340:0014
#032320:24
#032320:0014
#033340:24
#046340:0014
#046320:00000024
#047380:0014
#0473a0:00000024
#048340:0014
#048320:00000024
#050340:14000024
#050320:0034343434000000
#050330:0000000000340000
#052380:14000024
#0523a0:0034343434000000
#052390:0000000000340000
#055320:14
#057340:54
#059320:24
#0553a1:14
#057381:54
#0593a1:24
#059341:0014
#059321:00000024
#060381:0014
#0603a1:00000024
#061341:0014
#061321:00000024
#034920:14
#034940:0054
#035920:54
#035940:0054
#036920:54
#036940:0054
#037920:54
#037940:00005424
#0389a0:14
#038980:0054
#0399a0:54
#039980:0054
#0409a0:54
#040980:0054
#0419a0:54
#041980:00005424
