This file was generated by Ched 2.7.0.0.
#TITLE ""
#ARTIST ""
#DESIGNER ""
#DIFFICULTY 0
#PLAYLEVEL
#SONGID ""
#WAVE ""
#WAVEOFFSET 0
#JACKET ""
#REQUEST "ticks_per_beat 480"
#00002: 4
#BPM01: 100
#00008: 01
#TIL00: ""
#VOLUME: ""
#HISPEED 00
#MEASUREHS 00
#00115:00001313
#00118:0000000000130013
#00218:00001313
#00215:0000000000130013
#0041b:1313
#00412:00130013
#00418:000000130000000000000000000000130000000013000000
#00415:0000001300000013
#00410:41
#00918:2400000000130000
#0091b:0000000000000013
#00915:0000130000000013
#00912:0000001300130000
#00910:41
#01112:1300130000130023
#01118:1300130000130023
#0111b:0013000013002300
#01115:0013000013002300
#01514:140000000000140000000014000000000000000000000000
#01513:000000000000001400000000
#01512:000000000000000000000000000000000014000000000000
#01515:0000000000000013
#01518:24242400
#01519:0000000000240000
#0151a:00000024
#01510:41
#02215:00130013
#02218:0013001300130000
#02212:0000000000000013
#0221b:0013
#0311b:0000000013000013
#03116:0000000013000013
#03117:13
#03112:13
#03315:0000130000130013
#03318:0013001300001300
#0331b:0013
#03312:2313
#0331f:21
#03310:0041
#0361b:130000000000000000000013000000000000000000000000
#03612:13
#03615:0013000000000000
#03618:00130000
#03617:000013
#03718:0000130000131300
#03715:000000000000000000130000000000000013000000000000
#03712:2413
#0371b:0000000013000013
#02512:00130023
#02516:0000000013000013
#02517:00130013
#0251b:0000000013000023
#0251a:24
#00818:000000130000000000000000000000000000000024000000
#0081b:13
#00812:13
#00814:000000000000000000000024
#00815:003300
#01712:0013000000000000
#01718:0000001300131300
#01715:000000000000130000000000000013000013000000000000
#0171b:0000000013000013
#01717:27
#02118:000000000000130000000000000013000013000000000000
#0211b:0013000000000000
#02115:0000001300131300
#02112:0000000013000013
#02315:0013
#02318:0000000000130000
#02414:000000000000000000000000000000140000000000000014
#02419:000000000000000000000000000000000000003400000000
#0241a:000000000034
#02816:0000000013000013
#02819:13
#02814:13
#02812:00130023
#02817:00130013
#0281b:0000000013000023
#02916:00131300
#02912:2300001300000000
#02917:1300001300000000
#0291b:00131300
#03016:13000013
#0301b:13000013
#03017:0013
#03012:0013
#0341b:1300001300000000
#03418:000000000013000000000000130000000013000000000000
#03412:0013000000130000
#03415:000000000000130000000013000000000000000000000000
#03515:0000130000000013
#0351b:0000000000130000
#03518:00000013
#04115:000000000000000000000000000000000013000000000000
#04118:000000000000000000000000000000000000130000000033
#0411b:000000000000000000000000000000000000000033130000
#01018:0000000000130000
#0101b:00000013
#01212:00000000130000000000001300000000
#01215:2313
#01218:00000000130000000000001300000000
#0121b:2313
#01415:0000000000130000
#01412:00000013
#01618:13
#01615:00130000
#01619:0013
#01815:0013001300130000
#01818:000000130000000000135300
#01812:000000000000000000000000130000000000000000000026
#02617:13131300
#0261b:0000002300001300
#02616:0000001300001300
#02612:23232300
#02610:41
#0271b:13
#02716:13
#02719:00130000
#02714:00130000
#02712:00001313
#02717:00001313
#0271f:11
#03217:00130000
#03216:00000013
#0321b:230033330033000033330033000000000000000000000000
#03212:000000000000240000000000230033330033000033330033
#0321a:00000024
#03815:0000130000131300
#03818:000000000000000000130000000000000013000000000000
#03812:0000000023000013
#0381b:0023
#0391b:13
#03918:0013000000000000
#03915:0000000000130000
#03912:0023
#0391a:003300000033000000000000000000000000000000000000
#03919:003333000000000000000000
#03913:000000000000000000000000003300000033000000000000
#03914:000000000000003333000000
#00515:00130000
#00518:00000013
#0061b:1313131300000000
#00618:000000000000000000000000130000000000000000000013
#00612:0013
#00718:000000000013000000000000000000000000130000000000
#00715:000000000000000000000013000000000013000000130000
#01315:0000000000130000
#01312:0000000000000013
#01318:0000130000000013
#0131b:0000001300130000
#01314:24
#01912:000000000026000000000000000000000013000000000000
#01918:002600000000000000130000
#01915:0000000000000013
#0191a:000000000000000000000014000000000000000000000000
#0201a:14
#02016:00140014
#02012:0014
#02010:41
#04218:13
#0421b:0033
#0421a:0000003300000000
#04219:00330000
#04018:24
#04012:0000000000240000
#04417:00520000
#00958:14
#00955:00630000
#00952:0000002300000000
#01757:17
#0175b:0000000000000063
#01758:00000063
#03352:13
#0365b:000000000000000000000063000000000000000000000000
#03657:000023
#03752:14
#03758:00000053
#0375b:0000000000000053
#01354:14
#01358:00530000
#0135b:0000002300000000
#02458:0014
#02454:0000000000140000
#02956:00535300
#02952:6300005300000000
#02957:5300005300000000
#0295b:00535300
#03056:63000053
#0305b:63000053
#03057:0053
#03052:0053
#03458:000000000000000000000000000000000063000000000000
#03555:00630000
#0355b:13
#01058:0000000000530000
#0105b:00000023
#01255:5353
#01252:00000000530000000000002300000000
#01258:00000000530000000000002300000000
#0125b:5353
#01455:0000000000630000
#01452:00000023
#01659:0023
#02152:1400000000000053
#02155:00000053
#03157:53
#03152:53
#03156:0063
#0315b:0063
#03257:00230000
#0325b:53
#03256:00000023
#03252:0063
#03858:13
#03855:00000063
#03852:0000000000000063
#0395b:53130000
#03958:0023000000000000
#03955:0000000000230000
#03952:00006313
#0405a:0014
#04052:0000000000140000
#00658:000000000000000000000000000000000000000000000053
#00755:000000000000000000000063000000000000000000000000
#00852:0000000000130000
#0205a:54
#02056:00540064
#02052:0064
#0195a:000000000000000000000054000000000000000000000000
#01957:000000000000001400000000
#0255a:14
#04258:53
#04158:00000053
#0415b:0000000000000053
#0013b0:13230000
#002320:13230000
#0033b0:1323
#003370:00330000
#003321:0013
#003361:00000033
#004321:23
#0053b1:13230000
#005321:00001323
#006381:000000000000000000000000000000000000130033330033
#0073b1:002300000000000000000000
#007351:000000000000130033000033000000000000000000000000
#007321:000000000000002300000000
#008351:000000133300000000000000
#008321:000000000000000000000033000000230000000000000000
#009351:00132300
#009321:0000005300000000
#010381:1323000000000000
#010351:0000132300000000
#010381:0000000013330023
#0103b1:00000053
#012351:1300000033000023
#012321:00000000330000000000005300000000
#0123b0:1300000033000023
#012380:00000000330000000000005300000000
#013380:00132300
#0133b0:0000005300000000
#014350:1323000000000000
#014380:0000132300000000
#014350:0000000013330023
#014320:00000053
#016390:0013
#017370:27
#017380:00000013
#0173b0:0000000000000033
#018380:23
#0193a0:000000000000140034340034000000000000000000000000
#019370:000000000000002400000000
#0203a0:1424
#020360:00340000
#020321:0014
#020361:00000034
#021321:24
#021351:00000013
#021321:0000000000000033
#022351:23
#023381:13330000
#023391:003300000033000000000000000000000000000000000000
#0233a1:003333000000000000000000
#0233b1:0033002300000000
#023351:00000013
#023341:000000000000000000000000000000000000003300000000
#023331:000000000033
#023321:0000000000000023
#0243a1:143400343400000000000000
#024381:000000340034000000340034240000000000000000000000
#024381:00000014
#024391:000000000000000000000000000000000000003400000000
#0243a1:000000000000000000000000000000000000000034240000
#029321:1300003300002300
#029361:00333300
#029370:1300003300002300
#0293b0:00333300
#030360:13
#030320:00230000
#0303b1:13
#030371:00230000
#030371:0013
#0303b1:00000033
#031371:33
#0313b1:00230000
#030320:0013
#030360:00000033
#031320:33
#031360:00230000
#031360:0013
#031320:00000023
#0313b1:0013
#031371:00000023
#0323b1:130033330033000033330033230000000000000000000000
#032371:00330000
#032320:000000000000000000000000130033330033000033330033
#032360:00000033
#033320:23
#034380:000000000000000000000000000000000013000000000000
#0353b0:23
#035350:00130000
#035320:0023
#0363b0:000000000000000000130033000000000000000000230000
#036370:000053
#037380:00000013
#0373b0:0000000000000033
#038380:23
#038350:00000013
#038320:0000000000000033
#039350:23
#0393b1:13230000
#0393a1:003300000033000000000000000000000000000000000000
#039391:003333000000000000000000
#039381:0033000000000000
#039321:00001323
#039331:000000000000000000000000003300000033000000000000
#039341:000000000000003333000000
#039351:0000000000330000
#040381:143400343400000000000000
#0403a1:000000340034000000340034240000000000000000000000
#0403a1:00000014
#040391:000000000000000000000000000000000000003400000034
#040381:000000000000000000003434
#040371:0000000000000034
#0413a1:34
#041381:0023
#041381:000000000000000000000000000000000000130000000033
#0413b1:000000000000000000000000000000000000000033330000
#042381:33
#042391:00330000
#0423a1:0000003300000000
#0423b1:00003323
#043361:14
#044371:00220000
#018980:000000000000000000132300
