This file was generated by Ched 2.7.0.0.
#TITLE ""
#ARTIST ""
#DESIGNER ""
#DIFFICULTY 0
#PLAYLEVEL
#SONGID ""
#WAVE ""
#WAVEOFFSET 0
#JACKET ""
#REQUEST "ticks_per_beat 480"
#00002: 4
#BPM01: 140
#00008: 01
#TIL00: ""
#VOLUME: ""
#HISPEED 00
#MEASUREHS 00
#00514:14
#0061a:14
#00712:14
#00918:14
#01014:14
#01114:14
#0121a:14
#01210:41
#0131a:14
#01412:14
#01512:14
#01714:14
#0181a:14
#01912:14
#02018:14
#02010:41
#02114:14
#0221a:14
#02312:14
#0281a:14
#02914:14
#03018:14
#03318:2616
#0331f:21
#03412:1616
#03410:41
#03518:16
#03512:0016
#03712:2616
#03818:1616
#03912:16
#03918:0016
#04012:16
#04018:0016
#04112:2616
#04218:1616
#04312:16
#04318:0016
#04518:2616
#04612:1616
#05812:0016
#06018:0016
#06112:1616
#06218:1616
#06512:14
#0661a:14
#04718:16
#04712:0016
#04818:16
#04812:0016
#04918:2616
#04910:41
#05012:1616
#05118:16
#05112:0016
#05312:2616
#05418:1616
#05512:16
#05518:0016
#05612:16
#05618:0016
#06312:1616
#06418:1616
#0241f:11
#00418:24
#00410:41
#00818:24
#01618:24
#05710:41
#0003a0:14
#0013a0:24
#002320:14
#003320:24
#024380:14
#025380:24
#026340:14
#027340:24
#031320:14
#032320:24
#036380:16362600
#044320:16362600
#052380:16362600
#057320:16
#058320:26
#059380:16
#060380:26
#067340:14000000000000000000000034340034
#068340:0024
