This file was generated by Ched 2.7.0.0.
#TITLE ""
#ARTIST ""
#DESIGNER ""
#DIFFICULTY 0
#PLAYLEVEL
#SONGID ""
#WAVE ""
#WAVEOFFSET 0
#JACKET ""
#REQUEST "ticks_per_beat 480"
#00002: 4
#BPM01: 140
#00008: 01
#TIL00: ""
#VOLUME: ""
#HISPEED 00
#MEASUREHS 00
#0351b:1300000000000013
#03512:0013
#03618:0013000013000000
#0361b:0000001300000000
#03612:2313
#03615:00230000
#03812:1313
#0381b:0013000000000000
#03815:00130000
#03818:0000001300000000
#03912:1300000013000013
#03915:00000000130000000000001300000000
#03918:1300000000131300
#0391b:00130000
#04018:0013000000001313
#04015:0000130000130000
#0401b:0000001300000000
#04012:0013
#05815:0013000000130000
#05812:0000001300000013
#0581b:2323
#05818:00230023
#0641b:0013000000000000
#06418:0000001300000000
#06412:2323
#06415:00230000
#06712:13001300000000000000000000000013
#06718:00130013000000000000000000130000
#06715:0000001313001300
#0671b:00000000000000130013000000000000
#02415:00000013000000000000130013000000
#02418:00000000130000000000001300001300
#02412:2300001300000000
#0241f:11
#0241b:2323
#02815:0013000000130000
#02818:0000130000000013
#0281b:0000001300001300
#02812:2313
#02912:13000013
#02918:0013000000130013
#02915:00131300
#0291b:0000001300000000
#03018:0000001313000013
#03012:0000130000130000
#03015:13000000000000130000000013000000
#0301b:00130000
#00418:00231300
#00415:0013000000000013
#00412:0000001300000000
#0041b:23000000000000000000003300000000
#00410:41
#0051b:1313
#00512:0000001300005300
#00515:0013000000130000
#00518:00130000
#00514:000053
#00513:000000000000000000000000000000000053000000000000
#00915:00130013
#00912:1313
#00918:0013000000130000
#0091b:0000001300000000
#01018:0013001300000013
#01015:0000130000130000
#0101b:00000013
#01012:0013
#01615:0013000000000013
#01612:0000000000130000
#0161b:00000000133300000000000013000000
#01618:23
#01619:00000000000000330000000000000000
#0161a:0000003300000000
#0171b:1300000000130000
#01718:00000013000013000000000000001300
#01712:0000000013000013
#01715:0013130000000000
#01812:0000001300000000
#0181b:0013000013000000
#01818:00000000000000000000001300001300
#01815:0013000000131300
#01912:13000000133300000000000013000000
#0191b:0013000000130000
#01914:00000000000000330000000000000000
#01913:0000003300000000
#02215:0013000000000013
#02218:0000130000130000
#02212:0000001300001300
#0221b:1313
#00119:00000000120000000052000000000000
#00118:0000000012000012
#00116:0012000000000000
#00115:0000001200000000
#0011a:5200000000520000
#0011b:00000000000000000000005200000000
#0011c:00000052
#0081b:13131313
#00815:0000000000000013
#00818:00000000000000000000000000000013
#00615:00231300
#00618:0013000000000013
#0061b:0000001300000000
#00612:23000000000000000000003300000000
#01112:13
#01115:00130000
#01118:0013
#0111b:00000013
#01318:00130013
#01312:1313
#01315:0013000000130000
#0131b:0000001300000000
#01415:0013001300000000
#01418:00000000130000000033333300000000
#01412:0000000000000013
#0141b:0013
#01212:1300130013001313
#01218:00000000000000000000000000130013
#01210:41
#0151b:13
#01518:0000130000232323
#01515:0013
#02018:1313
#0201b:00130000
#02010:41
#02115:1313
#02112:00130000
#0231b:13
#02618:00000013000000000000130013000000
#02615:00000000130000000000001300001300
#0261b:2300001300000000
#02612:2323
#0311b:13
#03118:0000001300000000
#03212:13
#0321b:13
#03215:00333333333333330000000000000000
#03218:00333333333333330000000000000000
#03315:2313
#03312:00130000
#0331f:21
#0341b:1313
#03412:0013000000000013
#03418:0000130000130000
#03415:0000001300001300
#03410:41
#03718:2313
#0371b:00130000
#04312:1300000000000013
#0431b:0013
#04415:0013000013000000
#04412:0000001300000000
#0441b:2313
#04418:00230000
#0461b:0013
#04612:13
#04615:0013001300000000
#04618:00130000
#0471b:1300000013000013
#04718:00000000130000000000001300000000
#04715:1300000000131300
#04712:00130000
#04815:0013000000000013
#04818:0000130000130000
#04812:0000001300001300
#0481b:0013
#05718:1300000000000000000000000000001300000000000000000000000000000000
#05715:00000013000000000000000000000000
#05712:2300000000000000000000000000001300000000000000000000000000000000
#0571b:00000023000000000000000000000000
#05710:41
#0421b:1300000000000013
#04218:0013001300001300
#04215:0000130000130000
#04212:0013
#04112:2313
#04115:00130000
#06018:0013000000130000
#0601b:0000001300000013
#06012:2323
#06015:00230023
#05915:1300000000000000000000000000001300000000000000000000000000000000
#05918:00000013000000000000000000000000
#0591b:2300000000000000000000000000001300000000000000000000000000000000
#05912:00000023000000000000000000000000
#06218:0013000000130000
#0621b:0000001300000013
#06215:2323
#06212:00230023
#0001a:12000000000052525200000000005252
#00018:00005252520000000000525252000000
#00315:00120000
#00318:0012000000000000
#00319:0000001200000000
#00316:0012
#0031b:00000013
#00312:00000013
#00314:52
#00214:12000000000052525200000000005252
#00216:00005252520000000000525252000000
#02515:00001300000000130000000000000000
#02518:00130000
#0251b:00000000000013000033333300000000
#02512:23
#0271b:13
#02715:00001300000000000000001300000000
#02718:00000013000000000000130000000000
#02712:00000000003333330000000000000000
#06112:13
#0611b:0013
#06315:13
#06318:0013
#0651b:13
#0651a:0013000000000000
#06519:00130000
#06518:0000001300000000
#06517:0013
#06516:0000000000130000
#06515:00000013
#06514:0000000000000013
#0661a:13
#06619:0013000000000000
#06618:00130000
#06617:0000001300000000
#06616:0013
#06615:0000000000130000
#06614:00000013
#06613:0000000000000013
#04912:2313
#04915:00130000
#04918:2313
#0491b:00130000
#04910:41
#0501b:13
#05018:0013000013000013
#05015:00130013
#05012:0000001300130000
#0511b:13
#05115:0013
#05118:0000000000000013
#0521b:0013000000000000
#05218:0000001300000000
#05212:0013
#05215:23230000
#0531b:2313
#05318:00130000
#05315:2313
#05312:00130000
#05412:1313
#05415:0013000000000000
#05418:00131300
#0541b:0000001300000000
#05512:1300000000000013
#05518:0000130000131300
#05515:00000000000000001300001300000000
#0561b:0013000000000013
#05615:00130013
#05618:0000001300130000
#05612:0013
#0451b:2313
#04518:00130000
#00712:2424
#0071a:00240000
#0355b:53
#03552:0063
#03855:00000013
#03852:0053
#06452:0053
#06455:00000013
#06752:00000000000000000000000000000063
#00458:0053
#00752:1414
#0075a:00140000
#00955:00000053
#03658:0063
#03652:0063
#06155:00130000
#06158:00000013
#0615b:0053
#06152:53
#00655:0063
#01358:00000063
#0145b:0053
#0165b:00530000
#01952:00630000
#02058:5353
#0205b:00530000
#02155:6363
#02152:00630000
#0235b:53
#0315b:53
#03158:0000002300000000
#03252:63
#03255:0013
#0325b:53
#03258:0013
#03355:5363
#03352:00630000
#03758:6353
#0375b:00530000
#04352:63
#0435b:0053
#0465b:0063
#04658:00000013
#05758:0000000000000000000000000000002300000000000000000000000000000000
#05755:00000063000000000000000000000000
#05752:0000000000000000000000000000002300000000000000000000000000000000
#0575b:00000063000000000000000000000000
#04455:0053
#0445b:0053
#04152:6353
#04155:00530000
#05955:0000000000000000000000000000002300000000000000000000000000000000
#05958:00000053000000000000000000000000
#0595b:0000000000000000000000000000002300000000000000000000000000000000
#05952:00000053000000000000000000000000
#06855:0013
#00352:00000013
#0035b:00000013
#06355:53
#06352:00130000
#06358:0063
#0635b:00000013
#04952:6353
#04955:00530000
#04958:6353
#0495b:00530000
#0515b:53
#05155:0053
#05252:0053
#05255:00000013
#0535b:5363
#05358:00630000
#05355:5363
#05352:00630000
#0545b:00000013
#05458:0053
#05452:0053
#05455:00000013
#0455b:5363
#04558:00630000
#004380:0013
#0043b0:00000000000000000000003323000000
#006350:0013
#006320:00000000000000000000003323000000
#009350:00000013
#010320:23
#013380:00000013
#0143b0:23
#0143b0:0013
#014380:00000000000000000033333323000000
#0163b0:00000000133300000000000000000000
#0163a0:0000003300000000
#016390:00000000000000330000000000000000
#016380:0023
#019320:00000000133300000000000000000000
#019330:0000003300000000
#019340:00000000000000330000000000000000
#019350:0023
#020380:1333
#0203b0:00330023
#021350:1333
#021320:00330023
#0233b0:13
#023380:00000023
#025380:0013
#0253b0:00000000000000000033333323000000
#027350:00130000
#027320:00000000003333332300000000000000
#0313b0:13000023
#031380:0000005300000000
#032320:13
#032350:00333333333333332300000000000000
#0323b1:13
#032381:00333333333333332300000000000000
#033351:1333
#033321:00330023
#0353b1:13
#035381:00230000
#035321:0013
#035351:00000023
#036381:0013
#0363b1:00000023
#036320:0013
#036350:00000023
#037380:1333
#0373b0:00330023
#038320:0013
#038350:00000023
#041320:1333
#041350:00330023
#043320:13
#043350:00230000
#0433b0:0013
#043380:00000023
#044350:0013
#044320:00000023
#0443b1:0013
#044381:00000023
#0453b1:1333
#045381:00330023
#0463b1:0013
#046381:00000023
#049321:1333
#049351:00330023
#049380:1333
#0493b0:00330023
#0513b0:13
#051380:00230000
#051350:0013
#051320:00000023
#052320:0013
#052350:00000023
#0533b0:1333
#053380:00330023
#053351:1333
#053321:00330023
#054381:0013
#0543b1:00000023
#054320:0013
#054350:00000023
#0573b0:00000013000000000000000023000000
#057380:0000000000000000000000000000005300000000000000000000000000000000
#057351:00000013000000000000000023000000
#057321:0000000000000000000000000000005300000000000000000000000000000000
#059321:00000013000000000000000023000000
#059351:0000000000000000000000000000005300000000000000000000000000000000
#059380:00000013000000000000000023000000
#0593b0:0000000000000000000000000000005300000000000000000000000000000000
#061320:13
#061350:00230000
#0613b0:0013
#061380:00000023
#063350:13
#063320:00230000
#063380:0013
#0633b0:00000023
#064320:0013
#064350:00000023
#067320:00000000000000000000000000000013
#068350:0023
#0009a0:1200005252000052
#000980:0052520000525200
#0019a0:22
#001980:0012
#0019c0:00000022
#002940:1200005252000052
#002960:0052520000525200
#003940:22
#005950:0000000000130000
#005920:00000023
