This file was generated by Ched 2.7.0.0.
#TITLE ""
#ARTIST ""
#DESIGNER ""
#DIFFICULTY 0
#PLAYLEVEL
#SONGID ""
#WAVE ""
#WAVEOFFSET 0
#JACKET ""
#REQUEST "ticks_per_beat 480"
#00002: 4
#BPM01: 140
#00008: 01
#TIL00: ""
#VOLUME: ""
#HISPEED 00
#MEASUREHS 00
#03316:1300001300000013
#03312:0013000000130000
#03317:0013000000130000
#03318:00130013
#0331b:0000001300000013
#03315:0013
#0331f:21
#0331a:64
#03512:1300001313000000
#03516:0013000000130013
#0351b:0013130000130013
#03517:1300001300001300
#03612:1300000000130000
#03619:00130000
#03615:0013000000000000
#03618:0000001300000000
#03616:0013
#0361b:0013
#03617:2300000000130000
#03614:00230000
#03812:0013001300001200
#03816:13131312
#03916:13000000000000000000001200000000
#0391b:13
#03917:00130000
#03912:0013
#03918:0000000000121600
#03915:0000000000000016
#0401b:13000013
#04017:00130000
#04012:16131300
#04016:00000013
#04014:0013001300000000
#04019:0000000000130013
#0431b:1300001313000000
#04317:0013000000130013
#04312:1313130000130013
#04316:0000001300001300
#05715:00000014000000000000000000000000
#0571a:0000000000000000000000000000001400000000000000000000000000000000
#05712:00000023000000000000000013000000
#05717:23
#05710:41
#05819:0013000000130000
#05816:14141414
#05814:0000001300000013
#05812:2323
#0581b:00230023
#05916:14
#05917:00000014000000000000000000000000
#05912:2300000000000000000000000000001400000000000000000000000000000000
#0591b:00000023000000000000000013000000
#0611b:1313
#06117:0013000000130000
#06116:1500131813001318
#06112:0013000000130000
#06218:0014000000140000
#06216:00150015
#06215:1515
#06214:0000001400000014
#06212:2323
#0621b:00230023
#06512:12
#0651c:12
#0651b:0012000000000000
#06519:00000012000012000000000000000000
#06517:00000000120000120000000000001200
#06515:00000000000000001200000000000012
#06518:0000000000120000
#06516:00000000000000000000001200000000
#06514:00000012
#06613:12
#0661b:0012000000000000
#06619:00000012000012000000000000000000
#06617:00000000120000120000000000001200
#06615:00000000000000001200000000000012
#06618:0000000000120000
#06616:00000000000000000000001200000000
#06614:00000012
#06712:13001300000000000000000014000013
#06717:00130013000000000000000000000000
#0671a:00000000000000000000000000140000
#06716:00000000000013001300000000000013
#0671b:00000000000000130013000000000000
#02412:23000013130013000000000013000000
#02417:0013001300000000
#0241b:13000033000000002300000000000000
#02416:0000000013000013
#02418:0000000000130000
#02415:00000000000000000000001300000000
#0241f:11
#02515:00001200000000120000000000000000
#0251c:00120012
#02517:00000000001200000000000000000000
#0251a:0000001200000000
#02518:00000000000000001212000000000000
#02516:00000000000000000000121200000000
#02519:0012000000000000
#02512:23
#0261b:23000013130013000000000013000000
#02616:0013001300000000
#02617:0000000013000013
#02615:0000000000130000
#02618:00000000000000000000001300000000
#02612:13000033000000002300000000000000
#02718:00001200000000120000120000120000
#02716:00000012000012000000001200001200
#0271a:00000000001200000000000012000000
#02714:00000000120000001200000000000012
#0271b:23
#03216:14141414141414140000540000005400
#0321a:0054
#03219:0000000000000000000000000000000000540000000000000000000000000054
#03218:00000000000000000054000000000054
#03217:0000000000000000000000000000000000000054000000000000000000540000
#03215:0000000000000000000000000000000000000000005400000000005400000000
#03214:00000000000000000000005400540000
#03213:0000000000000000000000000000000000000000000000540054000000000000
#03212:00000054
#02817:0013000000000000
#02819:00130000
#0281b:2300001300000000
#02812:0013000013000000
#02814:0000000000130013
#02816:00001413
#0281a:00000014
#0291b:0013130000000000
#02916:1400001414000014
#02912:0000000000131300
#03012:13000000000000130000130013000000
#0301b:1300001313000013
#03018:00000013000000000000000000000000
#03015:00130000
#0311b:1313
#03117:00131700000000000013170000000000
#03112:00000000130017000000000000140014
#03116:00000000001300000000000000000000
#0311a:0000000000000014
#00012:12
#0001c:12
#00019:0012000000001200
#00017:00000012000000000000120000000000
#0001b:00120000
#00018:0000001200000000
#00016:00000000000000120000000000001200
#0001a:0012
#00015:00000000000000000000001200000000
#00014:00000000000000000000000000000012
#00115:00001200000000000012000000000000
#00117:00000000120000000000001200001200
#00119:0000001200120000
#00118:12
#0011b:00001212
#00314:0012000000000000
#00316:12121200
#00318:0000001200000000
#0031c:00000012
#0031a:0012
#00416:0014001400000014
#0041b:13000000000000001300003300000000
#00412:23000000140000002300001414000000
#00417:0000000000130000
#0041a:00240000
#00410:41
#00512:1300001313130000
#0051b:13130013
#00518:000000130000000000000000000000001300000000000000
#00515:000000000000000000130000000000000000000000000000000000000000000000001300000000000000000000000000
#00517:0013
#00616:0014001400130014
#00612:13000000240000001300003300000000
#0061a:00000000140000000000001414000000
#0061b:2323
#00718:00001300000013000000001300001300
#0071b:13131300
#00715:00000013
#00712:2323
#00716:00230000
#00812:13130000
#00815:0000000013001313
#00818:00000000130000000000000000000013
#0081b:1313
#00912:13131313
#0091b:13131313
#00917:0013000000130000
#00916:0000001300000000
#01112:1313
#0111b:13130013
#01118:00001300000000130000130000000013
#01115:00000013000013000000001300001300
#01218:0000000013001313
#01215:00000000130000000000000000130013
#0121b:13130000
#01212:1313
#01210:41
#0151b:13001313
#01512:1300130000130013
#01515:00001300000000130000260026002600
#01518:00000013000013000000000000000000
#0161b:1300001300000000
#01617:0013000000000000
#01612:00000014000000000000000000000000
#01619:00130000
#01614:00000000001400000000000000000000
#01616:00000000000000140000140000001400
#01615:26
#0171b:1300001300130000
#01715:0013000000000000
#01718:00000013000000000000000000000000
#01712:0000130013000013
#01717:0000000013000013
#01716:0000001300130000
#01816:00001300000000000000001200001300
#01812:00131300
#0181b:0013001300000013
#01817:0013
#01818:0000000000121200
#01912:1300130013130000
#01917:1300000000130000
#0191b:00001300001300001300000013000000
#01916:0013000000001300
#01918:0000001300000000
#01915:00000000000000130000000000000000
#02012:13131300
#02016:00001300000013000000130000000013
#02017:13000013
#02019:00130000
#0201b:0013
#02010:41
#0211b:1300130000130013
#02117:0013001300001300
#02116:1300000000130013
#02114:00130000
#02112:00001313
#02216:0013001300130000
#02212:0000130013000013
#0221b:0000000000131300
#02217:0000000013000013
#02316:13000000000000000013000000000000
#02312:00130013
#02317:00130000
#0231b:0000000013131300
#02318:0000000000000013
#02315:00000000000000000000000000000013
#02319:0013001300000000
#0021c:12
#00212:12
#00215:0012000000001200
#00217:00000012000000000000120000000000
#00213:00120000
#00216:0000001200000000
#00218:00000000000000120000000000001200
#00214:0012
#00219:00000000000000000000001200000000
#0021a:00000000000000000000000000000012
#01012:0013130000001300
#01016:00000013000013000000000000001300
#0101b:1313
#01017:0000000000130000
#0131b:13131313
#01312:13131313
#01316:0013000000130000
#01317:0000001300000000
#0141b:00001300130000000013001300000000
#01417:00000013000013000000000000001300
#01412:13
#01416:0000000013131300
#03717:1300001300000013
#0371b:0013000000130000
#03716:0013000000130000
#03715:00130013
#03712:2300001300000013
#03718:0013
#0441b:1300000000130000
#04414:00130000
#04418:0013000000000000
#04415:0000001300000000
#04417:0013
#04412:0013
#04416:2300000000130000
#04419:00230000
#04516:1300001300000013
#04512:0013000000130000
#04517:0013000000130000
#04518:00130013
#0451b:2300001300000013
#04515:0013
#06014:0013000000130000
#06015:00150015
#06016:1515
#06019:0000001300000013
#0601b:2323
#06012:00230023
#06412:0000230000130000
#06417:0000000000130000
#06416:1513
#06414:0018001800000000
#06415:00150000
#0641b:2323
#06312:1300001813000018
#06316:0013000000130000
#06315:15
#0631b:0013000000130000
#06317:00131313
#04912:0013001300130013
#0491b:00130013
#04916:2314130013141300
#04917:0000001300000013
#04910:41
#05012:0013001400000014
#05015:00000013000000000000000000000000
#05018:00130014
#0501a:0000001400000014
#05014:0014
#05016:0000000000140000
#05112:1414
#05116:1414141300140013
#0511a:0000001400000000
#0511b:0013000000130013
#05117:00000013
#05212:1313
#05216:2414241414001300
#0521b:00130000
#0531b:0013001300130013
#05312:13130013
#05317:23131313
#05316:0014001300140013
#0541b:0013001300130000
#05418:00000013000000001300000000000000
#05415:00131300
#05412:0000001300130000
#05517:13
#05512:13
#05516:00000000130000000000001200000000
#0551b:0013
#05518:0000000000121600
#05515:0000000000000016
#0561b:13000013
#05617:00130000
#05612:16131300
#05616:00000013
#05614:0013001300000000
#05619:0000000000130013
#0341b:0013000000130000
#03416:0000001300130000
#03417:00000013
#03418:0000000000000013
#03412:00001313
#03415:00000000000000000000000000000013
#03410:41
#04117:1300001300000013
#0411b:0013000000130000
#04116:0013000000130000
#04115:00130013
#04112:0000001300000013
#04118:0013
#04212:0013000000130000
#04217:0000001300130000
#04216:00000013
#04215:0000000000000013
#0421b:00001313
#04218:00000000000000000000000000000013
#0461c:00000012
#0461b:0013001300000000
#04617:13131300
#04618:00000012
#04717:13
#04712:13000016
#04716:0000130000120000
#0471b:0013
#04718:00000000000000000000001200000000
#04715:0000000000000016
#04812:13000013
#04816:00130000
#0481b:00131300
#04817:00000013
#04819:0013001300000000
#04814:0000000000130013
#04818:16
#06817:0000005300000000
#0681b:0000005300000000
#0681a:000000000053000000000000
#06819:000000000000000000000053000000000000000000000000
#06818:0053
#06816:000000000053000000000000
#06815:000000000000000000000053000000000000000000000000
#06814:0053
#03356:53
#03352:0023000000230000
#03358:00630063
#0335b:0000002300000023
#03355:0053
#0335a:44
#03552:6363
#03556:0023000000230000
#0355b:00530000
#03557:1300002300000000
#03656:0053
#03652:1300000000230000
#0365b:0053
#03657:0000000000230000
#03659:00130000
#03852:00000012
#03856:00000012
#03956:53
#03957:00630000
#0405b:53
#04057:00230000
#04052:0063
#04056:00000023
#0435b:5353
#04357:0023000000230000
#04352:13630000
#04356:0000002300000000
#05755:00000054000000000000000000000000
#0575a:0000000000000000000000000000002400000000000000000000000000000000
#05752:00000033000000000000000000000000
#05757:13
#0615b:63436343
#06157:0023000000230000
#06752:00000000000000000000000014000053
#06756:00000000000000000000000000000063
#0675a:00000000000000000000000000140000
#0245b:53
#02457:0023000000000000
#0255b:13
#02552:13
#0255c:00000012
#02752:13
#0275b:13
#0285b:13
#02852:0053000000000000
#03052:00000053
#0305b:0053
#03157:0017000000170000
#03152:0000001700000000
#00356:0052
#0035c:00000012
#00352:00000012
#0045b:0053
#00457:0000000000230000
#00552:53
#0055b:00630000
#00557:0053
#00752:1313
#00756:00130000
#01752:0000000013000013
#0175b:0000000000130000
#01856:0063000000000000
#01852:00230000
#0195b:00001313
#01952:0000000000130000
#02052:53535300
#02056:0023002300230000
#0215b:6300630000000023
#02157:0023002300005300
#02152:00000053
#02156:0000000000000023
#02257:3300000000000023
#02252:3353
#0225b:00000053
#02256:0000000000230000
#02352:00230000
#02356:53
#01152:13
#0115b:13
#01552:13
#0155b:13
#01555:0000000000463646
#05952:3300000000000000000000000000002400000000000000000000000000000000
#05957:00000064000000000000000000000000
#0595b:00000043000000000000000000000000
#00652:0063
#00656:0000000000230000
#0085b:5353
#00858:00530000
#01252:6363
#01255:00630000
#00952:13001363
#0095b:00130013
#0105b:63
#01056:00000023000000000000000000000000
#0135b:13001353
#01352:00130013
#01452:53
#01457:00000023000000000000000000000000
#01456:00000053
#01655:36
#02656:0023000000000000
#02652:63
#0265b:13
#03757:63
#0375b:0023000000230000
#03755:00530013
#03752:3300002300000000
#03758:0063
#0445b:1300000000230000
#04454:00130000
#04457:0063
#04452:0063
#04456:0000000000230000
#04556:53
#04552:0023000000230000
#04558:00630063
#0455b:4300002300000023
#04555:0053
#06252:1313
#0625b:00130013
#06456:00006343
#0645b:13006343
#06452:0000130000230000
#06457:0000000000230000
#06352:53335333
#06356:0023000000230000
#04956:63636363
#0495b:00630063
#04957:0000002300000023
#04952:0023002300230023
#05152:6464
#05156:0024640000240000
#0515a:0000002400000000
#05252:1313
#0525b:00130000
#05256:0064
#0525a:00000014
#0535b:0023002300230023
#05352:00530053
#05357:63535353
#05356:0000002300000023
#05458:00005313
#0545b:0000000000230000
#05455:00006313
#05452:0000000000230000
#05557:63
#05556:00530000
#0555b:00130000
#0565b:53
#05657:00230000
#05652:0063
#05656:00000023
#0345b:0000000000130000
#03452:00000013
#04157:63
#0415b:0023000000230000
#04155:00530053
#04152:0000002300000023
#04158:0063
#04252:0000000000130000
#0425b:00000013
#0465c:00000012
#04658:00000012
#04757:63
#04756:00530000
#04852:63
#04856:00230000
#0485b:0053
#04857:00000023
#003360:0012
#003320:00000022
#0043b0:00000000000000001300003323000000
#004370:0000000000530000
#005320:13
#005350:0023000000000000
#0053b0:00130000
#005370:0000002300000000
#005370:0013
#0053b0:0000000000230000
#006320:00000000000000001300003323000000
#006360:0000000000530000
#0083b0:13000000005300003300000000000000
#008380:00530000330000000053000023000000
#009320:00000013
#010360:23
#0103b1:1300002300000000
#010361:00000053000000000000000000000000
#010361:0013
#010321:0000000000230000
#010371:00000013
#0103b1:0000000000000023
#012321:13000000005300003300000000000000
#012351:00530000330000000053000023000000
#0133b1:00000013
#014371:23
#014320:1300002300000000
#014370:00000053000000000000000000000000
#014360:00000013
#014320:0000000000000023
#0163b0:00001323
#016321:00000013
#017321:23
#018361:0013002300000000
#018321:00530000
#020321:13333323
#020361:0053005300530000
#0213b1:13332300
#021371:0053005300000000
#021371:00000013
#0213b1:0000000000000053
#022371:23
#021320:00000013
#021360:0000000000000053
#022320:23
#0223b0:0013002300000000
#022370:00330000
#022320:00001323
#022360:0000000000330000
#0223b1:00000013
#022371:0000000000000033
#0233b1:23
#023360:1323
#023320:00530000
#0243b0:13000033230000000000000000000000
#024370:0053000000000000
#0243b0:00000013
#0253b0:23
#026320:13000033230000000000000000000000
#026360:0053000000000000
#026320:00000013
#027320:23
#028320:0013000000000000
#028360:0000002300000000
#029320:1300002300000000
#029360:0053530000000000
#0293b0:0000000013000023
#029370:0000000000535300
#0303b0:0013
#030360:00000023
#030321:00000013
#031371:23
#033361:13
#033321:0053000000000000
#033351:00230000
#033380:00132300
#0333b0:0000005300000000
#033351:00001323
#033321:0000000000530000
#033380:00000013
#0333b0:0000000000000053
#034370:23
#034321:13230000
#034361:0053000000000000
#034370:00132300
#0343b0:0000005300000000
#035320:13230000
#035360:0053000000000000
#0353b1:00132300
#035371:0000005300000000
#035320:00001323
#035360:0000000000530000
#036360:00001323
#036320:0000000000530000
#0363b1:00001323
#036371:0000000000530000
#037371:13
#0373b1:0053000000000000
#037381:00230000
#037350:00132300
#037320:0000005300000000
#037381:00001323
#0373b1:0000000000530000
#0383b1:13332300
#038371:0033003300000000
#039361:13
#039321:00230000
#039370:00130000
#0393b0:0023
#0403b0:1323
#040370:00530000
#040321:0013
#040361:00000053
#041321:23
#041370:13
#0413b0:0053000000000000
#041380:00230000
#041351:00132300
#041321:0000005300000000
#041380:00001323
#0413b0:0000000000530000
#041351:00000013
#041321:0000000000000053
#042361:23
#0423b0:13230000
#042370:0053000000000000
#042361:00132300
#042321:0000005300000000
#0433b1:13230000
#043371:0053000000000000
#043320:00132300
#043360:0000005300000000
#0433b1:00001323
#043371:0000000000530000
#044371:00001323
#0443b1:0000000000530000
#044320:00001323
#044360:0000000000530000
#045360:13
#045320:0053000000000000
#045350:00230000
#045381:00132300
#0453b1:0000005300000000
#045350:00001323
#045320:0000000000530000
#045381:00000013
#0453b1:0000000000000053
#046371:23
#046320:13332300
#046360:0033003300000000
#047370:13
#0473b0:00230000
#047361:00130000
#047321:0023
#048321:1323
#048361:00530000
#0483b0:0013
#048370:00000053
#0493b0:23
#049361:13333333
#049321:0053005300530053
#050361:23
#0493b0:00132300
#049370:0000005300000000
#0493b0:00000013
#049370:0000000000000053
#0503b0:23
#051320:14240000
#051360:0054000000000000
#051361:00142400
#0513a1:0000005400000000
#051320:00001424
#051360:0000000000540000
#052360:0014
#0523a0:00000024
#053370:13333333
#0533b0:0053005300530053
#054370:23
#053321:00132300
#053361:0000005300000000
#053321:00000013
#053361:0000000000000053
#054321:23
#054381:00001323
#0543b1:0000000000530000
#054350:00001323
#054320:0000000000530000
#055370:13
#0553b0:00230000
#055361:00130000
#055321:0023
#0563b1:1323
#056371:00530000
#056320:0013
#056360:00000053
#057320:23
#057350:00000014000000000000000024000000
#0573a0:0000000000000000000000000000005400000000000000000000000000000000
#059370:00000014000000000000000024000000
#059320:0000000000000000000000000000005400000000000000000000000000000000
#0613b0:13230000
#061370:0053000000000000
#0613b0:00001323
#061370:0000000000530000
#063320:13230000
#063360:0053000000000000
#063320:00001323
#063360:0000000000530000
#064360:00001323
#064320:0000000000530000
#0643b1:00001323
#064371:0000000000530000
#067321:00000000000000000000000000000013
#068371:0000002300000000
#067360:00000000000000000000000000000013
#0683b0:0000002300000000
#0329a0:0014
#032920:00000054
#0339a0:24
#068970:0000001300000000
#068940:0023
#0689b1:0000001300000000
#068981:0023
