This file was generated by Ched 2.7.0.0.
#TITLE ""
#ARTIST ""
#DESIGNER ""
#DIFFICULTY 0
#PLAYLEVEL
#SONGID ""
#WAVE ""
#WAVEOFFSET 0
#JACKET ""
#REQUEST "ticks_per_beat 480"
#00002: 4
#BPM01: 192
#00008: 01
#TIL00: ""
#VOLUME: ""
#HISPEED 00
#MEASUREHS 00
#00314:14
#00418:14
#00512:14
#00714:14
#0081a:14
#00914:14
#01018:14
#01112:14
#01218:14
#01312:14
#0151a:14
#01614:14
#01714:14
#01818:14
#01918:14
#02012:14
#02112:14
#03212:16
#03218:0016
#03612:16
#03618:0016
#03912:14
#0401a:14
#05012:14
#0501f:11
#05112:14
#0521a:14
#0531a:14
#05414:14
#05514:14
#07212:16
#07218:0016
#0751a:14
#07614:14
#07718:14
#07812:14
#0791a:14
#0021a:14
#0411a:14
#06018:16
#06012:0016
#06418:16
#06412:0016
#06812:16
#06818:0016
#0141a:24
#01410:41
#03018:26
#03012:0026
#03812:26
#03810:41
#07412:26
#08014:24
#0841a:24
#03712:26
#03718:0026
#07312:26
#07318:0026
#07310:41
#03118:26
#0061a:24
#03418:26
#03412:0026
#03518:26
#05812:26
#05818:0026
#0581f:21
#06618:26
#06612:0026
#06518:26
#06512:0026
#05912:26
#05910:41
#06212:26
#06218:0026
#06312:26
#06718:26
#07018:26
#07012:0026
#07118:26
#02610:41
#04810:41
#0223a0:14
#0233a0:24
#024340:14
#025340:24
#026380:14
#027380:24
#028320:14
#029320:24
#033320:16362600
#042340:14
#043320:24
#044380:14
#0453a0:24
#046320:14
#047340:24
#0483a0:14
#049380:24
#056380:14
#0573a0:24
#061380:16362600
#069320:16362600
#080340:14
#082320:24
