This file was generated by Ched 2.7.0.0.
#TITLE ""
#ARTIST ""
#DESIGNER ""
#DIFFICULTY 0
#PLAYLEVEL
#SONGID ""
#WAVE ""
#WAVEOFFSET 0
#JACKET ""
#REQUEST "ticks_per_beat 480"
#00002: 4
#BPM01: 192
#00008: 01
#TIL00: ""
#VOLUME: ""
#HISPEED 00
#MEASUREHS 00
#00212:2313000013000000
#00215:0000001300000013
#00218:26130013
#0021b:0000000000130000
#0031b:0013001300000000
#00315:00130013
#00312:1300000013000013
#00318:0000000000130000
#00616:0000001300000000
#00618:0013000000000000
#00617:0000000000130013
#00612:0000000000000013
#0061b:0000001300000000
#00615:23
#00718:0000000000000013
#00716:0013000000130000
#00712:0000001300000000
#0071b:0013000000000000
#00717:0000001300000000
#00815:13
#00818:0013000000000000
#00812:0000001300000000
#0081b:0000000000130000
#00816:0000000000130000
#00817:0000000000000013
#00917:0000001300000000
#00915:0000000000000013
#00916:0013000000000000
#00912:0000001300000000
#01018:13
#01012:0013000000130000
#0101b:0000001300000013
#01016:0000001300000000
#01118:1300000000130000
#01115:0013000013000013
#01112:0000001300000000
#01218:13
#01212:0013000000000000
#0121b:0000001300000000
#01216:0000001300000013
#01217:0000000000130000
#01312:0000000000130000
#0131b:0013000000001300
#01315:0000001300000013
#01318:0013
#02312:0013000000001300
#02315:00130000
#02318:0000001300000000
#0231b:0013
#02316:0013
#0271b:0013000013000000
#02718:0000130000130000
#02715:0000001300130000
#02712:1413
#03015:00000013
#03018:2400000024000013
#03012:2424
#03014:00240000
#0301a:00240000
#03112:1300001300000000
#03115:0013000000130013
#03118:00130013
#0311b:1300001300000000
#0321b:1313
#03215:0000130000000013
#03218:0000001300001300
#03212:1313
#0331b:1313
#03315:0013001300001300
#03318:0013001300000013
#03312:13130000
#03418:00230013
#03415:0000230000000013
#03412:23
#0341b:23
#03812:14141414
#0381b:0000001300000000
#03818:2323000000000000
#03810:41
#03915:0000001313000000
#03918:0000000000130000
#0391b:0053000000001300
#03912:53000013
#03917:53
#03919:00530000000000000000000000000000
#03914:00530000000000000000000000000000
#03916:0053000000000000
#04018:24000000000000000000001400000000
#04014:0000002400140000
#0401a:0000142400000000
#04012:24000024
#0421b:23131313
#04214:0013
#04216:00130000
#04212:23000013
#04312:13
#04316:0000001300000000
#0431b:13131313
#04716:13
#04712:0000001300000000
#0471b:13131313
#04817:13
#0481b:0000001300000000
#04812:13131313
#04818:0000000000000013
#04815:00000000000000000000000000000013
#04810:41
#05018:00131300
#05015:0000001300000000
#0501b:00000013
#05012:24131313
#0501f:11
#0501a:24
#05112:13131313
#05117:13
#0511b:00000013
#05115:0000001300000000
#0521a:14
#05212:14000013
#05215:00131300
#05218:0000001300000000
#0521b:00131313
#07715:1313000000000000
#07718:00130000
#0771b:1313
#07717:00000013
#07716:0013
#07712:00000013
#0781b:00130013
#07812:0000000000131300
#07818:0013
#07816:0013000000000000
#08218:00120012
#08216:0000001200000012
#08214:2222000012000000
#0821a:2222000000120000
#08314:1212
#0831b:0012001200000000
#08316:0000120000120000
#08318:00000000000000000000000012000013
#08315:0000000000000013
#0011b:0013130000000000
#00112:0000001313000000
#00118:0000000000262626
#01417:0000001300000000
#01415:0013000000000013
#01416:0000000000130000
#01412:0000001300000000
#01418:23130013
#01410:41
#01518:0000000000000013
#0151b:1300001313001300
#01512:0013000000000000
#01516:0000000000130000
#01615:13
#01612:0013000000130000
#0161b:0000001300000013
#01616:0000000000000013
#01614:00000013
#01718:0000000000000013
#01712:0000001300000000
#01717:0000001300000000
#01815:1313
#01818:0013000000130000
#01812:0000001300000000
#0181b:0000000000001313
#01816:0000000000000013
#01912:0013000000000013
#01916:0000001300000000
#01917:0013000000130013
#0191b:0000001300001300
#02116:0013000000001300
#0211b:0013000000001300
#02115:0013
#02119:13
#0251b:0013000000001300
#02518:00130000
#02515:0000001300000000
#02512:0013
#02517:0013
#0291b:0013000023000000
#02918:00130000
#02915:0000001300000000
#02916:00000013
#02912:0023
#03512:1300001300000000
#03515:00130013
#03518:0013000000130013
#0351b:1300001300000000
#03612:1313
#03618:00130000
#03615:0000001300000000
#0361b:13001313
#03616:00000013
#03614:0000000000000013
#03717:14
#03719:0014
#03718:00140000
#0371a:00000014
#03712:23242526
#04118:1400142400000023
#04114:00140000000000000000000000000000
#04112:0000142400000000
#0411a:0024000000000000
#0411b:0000000000230000
#04115:00000023
#04412:13131313
#04419:0013
#04417:00130000
#0441b:13000013
#0451b:13
#04517:0000001300000000
#04512:13131313
#04612:13000013
#0461b:13131313
#04616:00130000
#04614:0013
#04912:0000131300000000
#04918:0000000000130000
#04915:00000000000000000000001300000000
#04916:0000142400000000
#0491a:24000024
#05412:1353535353535353
#0541a:24
#05418:0000002400000000
#05416:00000024
#05413:00530053005300530053005300530053
#05715:00000013000000000000000000000000
#05718:00000013000000000000000000000000
#05712:23
#0571b:23
#06615:0013000000001300
#06618:00001334000000000000000000001300
#06612:2424
#0661a:2424
#06614:00000034000000000000000000000000
#06712:1300001300130000
#06715:0013000000001300
#06718:0000130000000013
#0671b:1300001300000000
#06912:1300001313000000
#06918:00000013
#06915:0000000000000013
#06917:0000001300000000
#0691b:1313130000000000
#06916:0013000000000000
#07018:00000013
#07015:0000000000000013
#0701b:2323
#07012:2323
#07112:1300001300000000
#07115:0000130000000013
#07118:0013000000001300
#0711b:1300001300130000
#06819:0000000000000013
#0681b:13
#06816:13
#06818:00130000
#06815:0000001300000000
#06812:00001313
#06817:00001313
#07412:26131300
#0741b:0000000013130000
#07415:00000013
#07418:0026000000000000
#07518:1313001300000000
#07515:00130013
#07512:1313
#07615:1313000000000000
#07618:00130013
#07612:0000000013130000
#0761b:1313
#07915:1313001300000000
#07918:00130013
#0791b:1313
#0801b:00130013
#08018:1300000013130000
#08013:0014001400140014001400140014001400140014001400140014001400140014
#08014:00120012001200120012001200120012
#08012:2616161616161616
#08118:1313000000000000
#08112:1616161616160000
#08113:0014001400140014001400140014001400140014001400140000000000000000
#08114:00120012001200120012001200000000
#0811c:00220000
#0811b:0022
#0811a:00000022
#00012:1313000000000000
#00015:0000000000001313
#00018:0000001313000000
#02017:0000001300000013
#0201b:0013000000000000
#02016:0013000000130000
#02012:0000001300000013
#02014:00000013
#0041b:2313000013000000
#00418:0000001300000013
#00415:00130013
#00412:0000000000130000
#00512:0013000000130000
#00518:0000130000000013
#0051b:1313
#00515:0000001300001300
#0531b:13131313
#05316:13
#05312:00000013
#05318:0000001300000000
#05818:00240013
#05815:0000000000000013
#05814:2424
#0581a:2424
#05812:00240000
#0581f:21
#0591b:1300001300000000
#05918:0013000000130013
#05915:00130013
#05912:1300001300000000
#05910:41
#06012:1313
#06018:0000130000000013
#06015:0000001300001300
#0601b:1313
#06112:1313
#06118:0013001300001300
#06115:0013001300000013
#0611b:13130000
#06215:00230013
#06218:0000230000000013
#0621b:23
#06212:23
#0631b:1300001300000000
#06318:00130013
#06315:0013000000130013
#06312:1300001300000000
#0641b:1313
#06415:00130000
#06418:0000001300000000
#06412:13001313
#06417:00000013
#06419:0000000000000013
#06515:14
#06513:0014
#06514:00140000
#06512:00000014
#0651a:00240000
#06519:0025
#06518:00000026
#0651b:23
#07212:13
#07217:13
#07215:0000130000000013
#07218:0000001300001300
#0721b:0013
#07216:0013
#08412:23
#0221a:2424000000000000
#02212:0000002424000000
#02216:0000000000002424
#0261a:00000024
#02618:2424000000000000
#02614:0000002424000000
#02610:41
#02814:2424000000000000
#02818:0000002424000000
#02812:0000000000002424
#0281a:0000000000002424
#07312:23242526
#0731a:00240000
#07319:0025
#07318:00000026
#0731b:23
#07310:41
#02412:2424000000000000
#0241a:0000002424000000
#02416:0000000000002424
#0561b:2323
#05618:0023000000230000
#05615:00230023
#05612:5300002300000023
#05516:24
#05518:0000002400000000
#0551a:0000000000002424
#05512:5353535353535353
#05513:00530053005300530053005300530053
#08452:13
#00656:0000006300000000
#00657:0000000000000053
#0075b:0053000000130000
#00757:0000005300000000
#00756:0000000000130000
#00858:0053000000000000
#00856:0000000000630000
#00857:0000000000000053
#00957:0000005300000000
#0095b:0000000000130000
#00956:0053000000130000
#00952:0000006300000000
#0105b:0000006300000000
#0235b:0053
#02352:00000013
#02357:00000013
#0295b:0013
#02952:0013
#02956:00000053
#04352:53000013
#04356:0000005300000000
#04756:63000013
#04752:0000006300000000
#04857:53000013
#0485b:0000005300000000
#04956:0000001400000000
#0495a:14000014
#01256:0000006300000063
#01257:0000000000530000
#01358:0013
#01457:0000005300000000
#01652:0063000000000000
#0165b:0000005300000063
#01656:0000000000000063
#01552:0053000000000000
#01556:0000000000130000
#01757:0013005300000000
#01752:0013005300000000
#01756:0000000000130000
#0175b:0000000000130000
#01858:0053000000000000
#01856:0000000000000063
#01952:0053000000000000
#01956:0000006300000000
#01957:0000000000000053
#02156:00000063
#02158:0000001300000000
#0215b:0053000000000000
#02155:0013
#02752:00006333
#02755:0000000000230000
#0275b:00005343
#02758:0000000000230000
#03052:1414
#03058:1414
#0305a:00140000
#03054:00140000
#0315b:0000005300000000
#03152:0000001300000000
#03352:00533300
#03355:0000002300000000
#03358:0023000000000000
#0335b:6343
#03455:00530000
#03458:00530000
#03452:0013
#0345b:0013
#03552:0000006300000000
#0355b:0000001300000000
#03752:33343536
#0385b:0000005300000000
#03858:1313000000000000
#0455b:63000013
#04557:0000006300000000
#05755:00000023000000000000000000000000
#05758:00000023000000000000000000000000
#05752:5300003300000000
#0575b:5300004300000000
#0265a:00000054
#0675b:0000005300000000
#06752:0000001300000000
#06957:0000002300000000
#0695b:00634300
#06956:0023000000000000
#06952:5333
#07352:33343536
#0735a:00440000
#07359:0045
#07358:00000046
#0735b:43
#0705b:5343
#07052:5333
#07055:00330000
#07058:00430000
#07458:0016000000000000
#07452:16
#07558:0000005300000000
#07955:0000006300000000
#08053:0054005400540054005400540054005400540054005400540054005400540054
#08054:00220022002200220022002200220022
#08052:2626262626262626
#0405a:0000001400000000
#04054:0000001400000000
#08152:2626262626260000
#08153:0054005400540054005400540054005400540054005400540000000000000000
#08154:00220022002200220022002200000000
#01155:0013000000000000
#01158:0000000000130000
#0205b:0063000000000000
#02057:0000005300000000
#02552:0063
#0255b:00000013
#02556:00000013
#04152:0000001400000000
#04158:0000001400000000
#05157:53
#0515b:00000013
#05356:63
#05352:00000013
#05952:0000006300000000
#0595b:0000001300000000
#06158:0000002300000000
#0615b:00634300
#06155:0023000000000000
#06152:5333
#0635b:0000005300000000
#06352:0000001300000000
#05854:1414
#0585a:1414
#05858:00140000
#05852:00140000
#0655a:00440000
#06559:0045
#06558:00000046
#0655b:43
#06258:00630000
#06255:00630000
#0625b:0013
#06252:0013
#06652:54343400
#0665a:54444400
#06658:0023000000000000
#06655:0023000000000000
#06856:13
#0685b:13
#06852:0013
#06857:0013
#07152:0000006300000000
#0715b:0000001300000000
#07252:13
#07257:13
#0725b:0013
#07256:0013
#0775b:0053
#07756:0053
#07757:00000053
#07752:00000053
#006360:0000001300000000
#006320:0000000000230000
#006370:0000000000000013
#0073b0:0033000000230000
#007370:0000003300000000
#008380:0013000000000000
#0083b0:0000002300000000
#008360:0000000000130000
#008320:0000000000000023
#008371:0000000000000013
#0093b1:0023000000000000
#009360:0013000000230000
#009320:0000003300000000
#009371:0000001300000000
#0093b1:0000000000230000
#0103b1:0000001300000000
#010371:0000000000230000
#012361:0000001300000000
#012321:0000000000230000
#012370:0000000000130000
#0123b0:0000000000000023
#012361:0000000000000013
#013321:0023000000000000
#014371:0000001300000000
#0143b1:0000000000230000
#015321:0013000000000000
#015361:0000002300000000
#016321:0013000000000000
#016361:0000002300000000
#0163b0:0000001300000000
#016370:0000000000230000
#0163b0:0000000000000013
#017370:0023000000000000
#016361:0000000000000013
#017321:0023000000000000
#017321:0000001300000000
#017361:0000000000230000
#017370:0000001300000000
#0173b0:0000000000230000
#018380:0013000000000000
#0183b0:0000002300000000
#018360:0000000000000013
#019320:0033000000230000
#019360:0000003300000000
#019370:0000000000000013
#0203b0:0033000000230000
#020370:0000003300000000
#0213b0:0013000000000000
#021380:0000002300000000
#021360:00000013
#022320:23
#0233b0:0013
#023370:00000023
#025320:0013
#025360:00000023
#0263a0:00000014
#027360:24
#027320:00001323
#027350:0000000000530000
#0273b1:00001323
#027381:0000000000530000
#029361:00000013
#030321:24
#0313b1:0000001300000000
#031381:0000000000230000
#0333b1:13230000
#033381:0033000000000000
#033320:00132300
#033350:0000003300000000
#034350:00130000
#034320:0023
#034381:00130000
#0343b1:0023
#035321:0000001300000000
#035351:0000000000230000
#0383b1:0000001300000000
#038371:00000023
#043321:13000023
#043361:0000003300000000
#0453b1:13000023
#045371:0000003300000000
#047361:13000023
#047321:0000003300000000
#048371:13000023
#0483b1:0000003300000000
#051371:13
#0513b1:0000333323000000
#053361:13
#053321:0000333323000000
#057321:1300002300000000
#057351:00000053000000000000000000000000
#0573b0:1300002300000000
#057380:00000053000000000000000000000000
#059320:0000001300000000
#059350:0000000000230000
#061320:13230000
#061350:0033000000000000
#0613b1:00132300
#061381:0000003300000000
#062381:00130000
#0623b1:0023
#062350:00130000
#062320:0023
#0633b0:0000001300000000
#063380:0000000000230000
#066320:14240000
#066350:0033000000000000
#066340:00000034000000000000000000000000
#0663a1:14240000
#066381:00003334000000000000000000000000
#0673b1:0000001300000000
#067371:0000000000230000
#069321:13230000
#069361:0033000000000000
#0693b0:00132300
#069370:0000003300000000
#0703b0:13
#070380:00230000
#070321:13
#070351:00230000
#071321:0000001300000000
#071361:0000000000230000
#075381:0000001300000000
#0753b1:0000000000332300
#0773b1:0013
#077371:00000033
#0783b1:23
#077360:0013
#077320:00000033
#078360:23
#079350:0000001300000000
#079320:0000000000332300
#080320:1656565656565656
#080330:0054005400540054005400540054005400540054005400540054005400540054
#080340:00520052005200520052005200520052
#081320:5656565656562600
#081330:0054005400540054005400540054005400540054005400540000000000000000
#081340:00520052005200520052005200000000
#039970:13
#0399b0:0023000000000000
#039921:13
#039961:0023000000000000
#054921:1353532300000000
#054931:00530053005300000000000000000000
