This file was generated by Ched 2.7.0.0.
#TITLE ""
#ARTIST ""
#DESIGNER ""
#DIFFICULTY 0
#PLAYLEVEL
#SONGID ""
#WAVE ""
#WAVEOFFSET 0
#JACKET ""
#REQUEST "ticks_per_beat 480"
#00002: 4
#BPM01: 192
#00008: 01
#TIL00: ""
#VOLUME: ""
#HISPEED 00
#MEASUREHS 00
#0031a:14
#00314:0014
#00418:14
#00412:0014
#00512:0014
#00518:14
#0061a:1414
#03912:14
#03918:14
#0401a:14
#04014:14
#05012:1414
#0501f:11
#05118:1414
#05214:1414
#0531a:1414
#05412:1414
#05418:00140014
#05514:1414
#0551a:00140014
#00214:0014
#0021a:24
#00814:1414
#01018:1414
#01212:1414
#01414:00140000
#0141a:2414
#01410:41
#01512:1414
#01518:00140000
#0161a:1414
#01614:00140000
#0181a:1414
#01814:00140000
#01912:1414
#01918:00140000
#0231a:00140014
#02314:0014
#02518:00140014
#02512:0014
#0271a:00140014
#02714:0014
#0311a:0014
#03112:14
#03214:1414
#03218:00140014
#03414:00240014
#03418:2424
#0351a:14
#03512:0014
#03618:1414
#03614:00140014
#05912:0014
#0591a:24
#05910:41
#0601a:14
#06014:00140000
#06018:0014
#06012:00000014
#0631a:0014
#06312:24
#06412:14
#06418:00140000
#06414:0014
#0641a:00000014
#06712:0014
#06718:24
#06818:14
#06812:00140000
#0681a:0014
#06814:00000014
#07418:0014
#07412:26
#07514:14
#0751a:0014
#07614:1414
#07718:14
#0771a:00000034
#07814:0014
#07918:14
#07912:0014
#03018:00240014
#03014:2424
#0711a:0014
#07114:24
#07214:14
#0721a:00140000
#07212:0014
#07218:00000014
#0381a:24
#03810:41
#08018:24
#08412:24
#0841a:24
#0371a:2424
#03712:00240024
#04112:2424
#0411a:2424
#0581a:24
#05814:00240000
#05818:0024
#05812:00000024
#0581f:21
#06514:24
#06512:00343400
#06618:24
#06612:00240000
#0661a:0024
#06614:00000024
#07312:2626
#07318:00260026
#07310:41
#08212:24
#0821a:24
#02212:24
#02414:24
#02814:24
#05614:24
#05612:00343434
#06212:24
#06218:00240000
#06214:0024
#0621a:00000024
#02612:24
#02610:41
#07014:24
#0701a:00240000
#07012:0024
#07018:00000024
#03314:0034343400000000
#04212:00003434
#04214:00340000
#06118:0034343400000000
#06918:0034343400000000
#04818:0000003400000000
#04810:41
#0491a:0000003400000000
#0441a:00003434
#04418:00340000
#04614:00003434
#04612:00340000
#0291a:0054545464000000
#0385a:14
#0615a:0014
#0695a:0014
#07452:16
#08058:54
#05752:0000001400000000
#0785a:14
#05654:54
#0073a0:1424
#009340:1424
#011380:1424
#013320:1424
#017320:14
#017330:00340000
#017340:0024
#020320:14
#020340:0024
#020381:14
#0203a1:0024
#0213a1:14
#021381:0024
#021340:14
#021320:0024
#022320:14
#022330:0000003400000000
#022340:00000024
#024340:14
#024330:0000003400000000
#024320:00000024
#026320:14
#026330:0000003400000000
#026340:00000024
#028340:14
#028330:0000003400000000
#028320:00000024
#033340:1434343400000000
#033320:0024
#042340:14340000
#042320:00003434
#043320:34
#043330:0000003400000000
#043340:00000024
#044380:14340000
#0443a0:00003434
#0453a0:34
#045390:0000003400000000
#045380:00000024
#046320:14340000
#046340:00003434
#047340:34
#047330:0000003400000000
#047320:00000024
#0483a0:14
#048380:0000003400003400
#049380:34
#0493a0:0000003400002400
#056340:14
#056320:00343434
#057320:3434342400000000
#061380:1434343400000000
#0613a0:0024
#065340:14
#065320:00343424
#069380:1434343400000000
#0693a0:0024
#077380:0014
#0773a0:00000034
#0783a0:24
#080380:14
#0813a0:0024
#0299a0:0014000024000000
