This file was generated by Ched 2.7.0.0.
#TITLE ""
#ARTIST ""
#DESIGNER ""
#DIFFICULTY 0
#PLAYLEVEL
#SONGID ""
#WAVE ""
#WAVEOFFSET 0
#JACKET ""
#REQUEST "ticks_per_beat 480"
#00002: 4
#BPM01: 138
#00008: 01
#TIL00: ""
#VOLUME: ""
#HISPEED 00
#MEASUREHS 00
#00212:0013
#00218:0013
#0031b:13
#00315:13
#00312:0013
#00318:0013
#00815:00000013
#0081b:0023
#00810:0041
#03715:13131300
#03718:0013000000000000
#0371b:0000001300000000
#03712:00000013
#04518:13131300
#04515:0013001300000000
#06015:00000013
#06118:13
#0611b:00130000
#06112:0013
#06115:00000013
#06218:13
#0621b:00130000
#06215:0013
#00018:0013
#0011b:13
#00118:0013
#00415:0013
#00512:13
#00515:0013
#0061b:0013
#00615:0013
#00712:13
#00718:13
#0071b:0013
#00715:0013
#00912:00130000
#00915:00000013
#0091b:23
#00918:0023
#01012:00130000
#01015:00000013
#01018:23
#0101b:0023
#01112:00130000
#01115:00000013
#0111b:23
#01118:0023
#01212:00130013
#0121b:0000001300000013
#01215:0023
#01218:23
#01315:1313
#01318:0013001300000000
#01312:0000130000330000
#01418:13000013
#0141b:0013
#01412:0000000000130000
#01415:0000001300000013
#0151b:13
#01512:0013000000000000
#01518:0000130000333333
#01515:0000001300000000
#02018:00130000
#02015:00000013
#0201b:0023
#02019:0000003300000000
#02014:0000000000000033
#02118:00130013
#02115:0000001300000000
#0211b:0013
#02112:2300000000130000
#02215:00130013
#02218:0000001300000000
#02212:0013
#0221b:23
#02214:0000000000330033
#02318:00130023
#02315:0000001300000000
#0231b:0013
#02312:23
#02319:0000000000330000
#02418:0000130000130000
#02415:0000001300001300
#0241b:0013
#02412:2300000000000013
#02410:0041
#02518:1300001300001300
#02512:0013000000130000
#02515:0000130000000013
#0251b:0013
#02618:0013001300000000
#02615:00131300
#0271a:0014000000000000
#02715:0000001300000000
#02718:0013
#0271b:00000000000000000000003300000000
#02815:13
#02818:0024
#0281a:0000000000343434
#02812:00000033000000000000000000000000
#03115:00130000
#03118:0000001300000000
#03114:00000014
#03112:0024
#03113:0000000000000034
#03218:0000130000000013
#03215:0000001300001300
#0321b:0013
#03212:0000000000130000
#03210:0041
#0331b:1313
#03315:0013000000000000
#03318:0000130000330000
#03312:0000001300000000
#03415:13
#0341a:00000014
#03418:0024
#03515:0000130000000013
#0351b:0000001300000000
#03512:0013
#03518:0000000000131300
#0361b:1313
#03612:0013000000001300
#03618:0000130000000013
#03615:0000001300000000
#03818:0000001300000000
#0381b:00130000
#03814:00000014
#03812:0024
#04318:0000130000000013
#04315:0000001300000000
#0431b:0013
#04312:0000000000131300
#04415:13130000
#0441b:0013000000001300
#04418:0000001300000000
#04412:0000000013000013
#0441f:0011
#04618:0000000000130000
#04615:00000013
#0461b:0000000000000013
#04612:0023
#04712:1313
#04718:0013000000000013
#04715:00130013
#0471b:0000001300130000
#0481b:0000000000130013
#04815:00130013
#04812:23
#04814:0000003300000000
#04912:1323
#04918:00130023
#04915:0000001300230000
#0491b:0000000000000023
#05015:13130000
#05018:0013001300000000
#0501a:0024
#05012:0024
#05215:0000130000000013
#05218:0000001300001300
#05212:0013
#0521b:0000000000130000
#0521f:0021
#05312:1300000000330000
#05315:0013000013000000
#05318:00130000
#0531b:0000001300000000
#05310:0041
#05418:13
#05412:00000014
#05414:0024
#05518:0013130000000013
#05515:0000001300001300
#0551b:0013
#05512:0000000000130000
#05615:1300001300000013
#0561b:0013000000001300
#05618:00130000
#05612:0013
#05718:13
#0571b:00130000
#05712:00000013
#05715:0000000000000013
#05818:1300001300000000
#0581b:0013000000000000
#05815:00132300
#0641b:0013
#06415:0000130000000013
#06418:0000001300001300
#06512:13
#0651b:0013
#06515:00130000
#06518:0000001300000000
#06312:13
#06315:0013
#06618:0013
#0671b:13
#06718:0013
#06812:0013
#06818:0000130000000013
#06815:0000001300001300
#0691b:13
#06912:0013
#06918:00130000
#06915:0000001300000000
#01618:1323
#01615:0000000000130000
#0161b:00000013
#01612:0000001300000013
#01610:0041
#01718:1313
#01715:0013001300000000
#0171b:0000130000330000
#01815:13000013
#01812:0013
#0181b:0000000000130000
#01818:0000001300000013
#01912:13
#0191b:0013000000000000
#01915:0000130000333333
#01918:0000001300000000
#03018:00000014
#0301a:0024
#03918:00130014
#03915:0000001300000000
#0391a:0024
#03919:0000000000000034
#04015:0000130000000013
#04018:0000001300001300
#04012:0013
#0401b:0000000000130000
#04010:0041
#04112:1313
#04118:0013000000000000
#04115:0000130000330000
#0411b:0000001300000000
#04218:13
#04212:00000014
#04214:0024
#05118:00000014
#05114:00000014
#0511a:0024
#05112:0024
#02912:0000000000240000
#0291a:3434343400000000
#0701a:00240000
#07012:0000002400000000
#02858:0064
#02855:63
#0295a:0014
#02952:0000000000140000
#03755:0053
#03752:00000023
#04558:0053
#05855:0053
#00058:0053
#0015b:53
#00158:0053
#00352:0053
#00358:0053
#00455:0063
#00552:63
#00555:0063
#0075b:0063
#00755:0063
#01458:63
#02058:00630000
#02055:13000053
#0205b:0013
#02158:00000063
#02152:13
#02252:0063
#02255:00000023
#0225b:13
#0235b:0053
#02358:00000013
#02352:13
#02655:0053
#02652:0000000000000014
#0275a:0014000000000000
#02758:0053
#0305a:0054
#03058:00000054
#0315a:14
#03152:0064
#03154:00000064
#0335b:0063
#03358:00000013
#03252:14
#03455:13
#0345a:00000064
#03458:0064
#05152:00146400
#0515a:00145400
#05158:00000054
#05154:00000064
#05355:0063
#05352:00000013
#05458:13
#05452:00000054
#05454:0054
#0575b:00230000
#05758:6313
#04852:63
#04855:00630000
#06255:0063
#06352:63
#06355:0063
#0655b:0063
#06658:1353
#0675b:53
#06758:0053
#06952:0053
#02452:13
#01355:0053
#01658:53
#01855:53
#01758:0063
#03558:14
#04152:0053
#04155:00000013
#04258:13
#04252:00000054
#04254:0054
#03854:00000064
#03852:0064
#03958:00000054
#0395a:0054
#03952:14
#0405a:14
#04354:14
#0525a:14
#05252:14
#05554:14
#000380:0013
#0013b0:33
#001380:0033
#0023b0:23
#003320:0013
#004350:23
#003381:0013
#0043b1:23
#004351:0013
#005321:33
#005351:0033
#006321:23
#0073b1:0013
#008381:23
#007350:0013
#008320:23
#013350:0013
#013320:0000000000332300
#014380:13
#0143b0:00230000
#0153b0:0013
#015380:0000000000333333
#016380:33
#0163b0:00230000
#017380:0013
#0173b0:0000000000332300
#018350:13
#018320:00230000
#019320:0013
#019350:0000000000333333
#020350:23
#020380:00130000
#020390:0000003300000000
#0203b0:0023
#020350:00000013
#020340:0000000000000033
#021320:23
#021380:00000013
#0223b0:23
#022320:0013
#022340:0000000000330033
#022350:00000033
#023320:23
#0233b0:0013
#023390:0000000000330000
#023380:00000023
#026350:0013
#026320:0000000000003424
#027380:0013
#0273b0:00000000000000000000003300002300
#028350:13
#028320:00000033000023000000000000000000
#028380:0014
#0283a0:0000000000343434
#0293a0:3434343424000000
#0303a0:0014
#030380:00000034
#0313a0:24
#031320:0014
#031340:00000034
#031330:0000000000000034
#032320:24
#0333b0:0013
#033380:0000000000332300
#034380:0014
#0343a0:00000034
#035380:24
#037350:0013
#037320:00000053
#038350:23
#038320:0014
#038340:00000034
#039320:24
#0393a0:0014
#039380:00000034
#039390:0000000000000034
#0403a0:24
#041320:0013
#041350:0000000000332300
#042340:0014
#042320:00000034
#043340:24
#045380:0013
#0463b0:00230000
#048320:1323
#048350:00330000
#048340:0000003300000000
#050320:0014
#051320:00240000
#0503a1:0014
#0513a1:00240000
#0513a1:0014
#051381:00000034
#0523a1:24
#051320:0014
#051340:00000034
#052320:24
#053350:0013
#053320:0000000000332300
#054340:0014
#054320:00000034
#055340:24
#057380:1323
#0573b0:00530000
#058350:0013
#060320:0023
#062350:0013
#063320:33
#063350:0033
#064320:23
#0653b0:0013
#066380:23
#066380:0013
#0673b0:33
#067380:0033
#0683b0:23
#069320:0013
#070350:23
