This file was generated by Ched 2.7.0.0.
#TITLE ""
#ARTIST ""
#DESIGNER ""
#DIFFICULTY 0
#PLAYLEVEL
#SONGID ""
#WAVE ""
#WAVEOFFSET 0
#JACKET ""
#REQUEST "ticks_per_beat 480"
#00002: 4
#BPM01: 115
#00008: 01
#TIL00: ""
#VOLUME: ""
#HISPEED 00
#MEASUREHS 00
#00419:0013001300000000
#00417:000000000000130000000000000000000013000000000000
#00416:0013
#00412:24130013
#0041b:0013
#0041a:24
#00410:41
#03112:23131313
#03115:0013000000130013
#03118:000000000000000000130000000013000000000000000000
#0311b:23131313
#06318:0013
#06312:130000000000130000000013000000000000000000000000
#0631b:1300131300000000
#06315:001300
#00515:0013131300000000
#00517:0013
#00518:000000000013000000000000000000000000000000000000
#00512:0013
#0051b:13000013
#00516:000000000000000000000000000000000013000000000000
#00618:0013131300000000
#00616:0013
#00615:000000000013000000000000000000000000000000000000
#0061b:0013
#00612:13000013
#00617:000000000000000000000000000000000013000000000000
#0071b:13131313
#00718:0000001300130000
#00715:00130013
#00712:0013000013000013
#0081a:14
#00818:0013000000000000
#00815:0000131300000000
#00817:0013
#0081b:00130013
#00812:1413
#00816:000000000000000000000000000000000013000000000000
#01215:0013000000001300
#01217:001300
#01212:2400000000130000
#0121b:000000000000000000000013000000000000000000000000
#01218:0000000000000013
#01216:000000000000000000000013000000000000000000000000
#0121a:24
#01210:41
#01318:0013000000001300
#01316:001300
#01315:0000000000000013
#01312:130000000000000000000013000000000000000000000000
#0131b:1300000000130000
#01317:000000000000000000000013000000000000000000000000
#01418:0013000000000000
#01412:130000000000000013000000000000130000000000000000
#0141b:130000000000000000000013000000000000130000000000
#01415:000000000013000000000000000000000000000000000000
#01416:000000000000000000000013000000000000130000000000
#01515:000000000000000000000013000000130000130000000000
#01518:000014000000130000130000
#0151a:14
#01514:001400000000000000000000
#01512:00140000
#01516:001400
#02018:000000000000000000000013000000000013000000000000
#02012:00231313
#0201b:230000000000000000000000000013000000000000130000
#02015:0000000000130000
#02016:2300000000000013
#02017:00230000
#02010:41
#02118:0013
#02115:000000000000001300000000
#0211b:0000230000131300
#02112:230000000000000000000013000000000013000000000000
#02116:00230000
#02117:23
#0221b:000000130000000000000013000000000000000000000000
#02215:00000013
#02218:0000000000000013
#02212:1300130000130000
#02216:000000130000000000000013000000000000000000000000
#02217:00130000
#02912:230000000000130000000000130000000000000000000013
#02915:000000000000000000130000000000000000000013000000
#0291b:23131313
#02918:0013000000130013
#02910:41
#0301b:13131313
#03018:0000001300000013
#03015:000000130000000000000013000000000000130000000000
#03012:0000130000130000
#03215:0000131300130013
#03218:1313000000001300
#03212:00002313
#0321b:0023
#03312:13007313
#03318:0000000000000013
#0331b:130000000013000000000000000000000000130000000000
#03316:00130000
#03418:0000000000130013
#0341b:13000013
#03415:00000013
#03412:130000000013000000000000130000000000000000000000
#03417:00130000
#0361b:1300230000130000
#03614:0013000000000000
#03612:13230013
#03619:0013000000000000
#03616:0000000000130013
#03615:0000001300000000
#03618:0000001300000000
#03617:00000013
#03717:1300000000130013
#0371b:00130013
#03716:000000000013000000000000000000000000130000000000
#03712:0000000013130000
#04012:130000240013
#04015:0013000000000000
#04018:00130000
#0401b:000000000000000000130000000000000000000000000013
#04019:0000000000130000
#04016:000000000000000000000000000000000000000000000013
#04014:0000000000130000
#0401f:0011
#0401a:0024
#03512:13130000
#03515:0013000000000000
#03518:00130000
#0351b:1300001300000000
#03517:0000000000130000
#03516:0000000000000013
#06215:001300000000000000130000
#0621b:13130000
#06216:00130000
#06218:0013000000000013
#01612:130000000000000000000013000000000000000000000000
#01618:0013000000001300
#01616:001300
#0161b:0000000000130000
#01615:0000000000000013
#01617:000000000000000000000013000000000000000000000000
#01718:0013130000000013
#01712:130000000000000013000000000000130000000000000000
#01715:000000000013000000000000000000000000130000000000
#0171b:130000000000000000000013000000000000000000000000
#01716:000000000000000000000013000000000000000000000000
#01815:0013130000000000
#0181b:130000001300000000130000
#01812:130000000000000000000013000000000000000000000000
#01818:000000000013000000000000000000000000000000000000
#01817:000000000000000000000013000000000000000000000000
#01918:1300000000000023
#01915:13000023
#01912:0033335300230000
#0191b:0033335300000000
#02316:13
#0231b:130000000000000033130000000000000000000000000000
#02317:000000000013000000000000130000000000000000000000
#02312:0013
#04812:000000000000000000000000230000000000000000000013
#0481b:0023000000002300
#04816:00000023
#04818:00230000
#04815:0000002300000000
#04817:0023
#0481f:0021
#04917:1300001300002300
#04914:001300000000000000000000
#04919:0013000000000000
#04916:000000000013000000000000000000000000000000000000
#0491b:000000000000130000000000230000000000000000000013
#04912:0000001300002300
#04910:0041
#05017:000000000013000000000000000000130000000000000013
#0501b:00001313
#05012:000000000000130000000000000000130000000000000013
#05016:13000013
#05019:001300000000000000000000
#05014:0013000000000000
#0541b:000000000000130000000000000000130000000000000013
#05412:00001313
#05417:13000013
#05414:001300000000000000000000
#05419:0013000000000000
#05416:000000000013000000000000000000130000000000000013
#0551b:0000000013000013
#05512:0013000013000013
#05516:000000000000000000000000000000000013000000000000
#05515:00130000
#05518:0000001300000000
#05616:1324000000001300
#05612:0000000016130013
#0561b:000000000000000000000000000000000013000013000013
#05716:13
#0571b:000013000000000000000000130000130053000000530053
#05712:000000130000000000000000130000130053000000530053
#05718:000000130000000000535300
#05715:000000130000000000535300
#05817:0000000000130013
#05812:000000530053000000530000240000000013000013000013
#0581b:000000530053000000530000000000000000130000000000
#0581a:0024
#05818:535300530000000000000000
#05815:535300530000000000000000
#0591b:130000000000130000000000000000130053000000530053
#05912:000013000000130000000000000000130053000000530053
#05919:0013
#05914:0013
#05917:0013000000000000
#05918:000000000000000000535300
#05915:000000000000000000535300
#06015:5300530000130013
#0601b:000000530000000000530000000000000013000000000013
#06012:0053005324001300
#06018:530000530000000000001300
#0601a:005300005300240000000000
#06019:005300000000005300000000000000000000000000000000
#06013:005300005300000000000000
#06014:005300000000005300000000000000000000000000000000
#06112:130000000000000000000000130000000013000000000013
#06118:0013000000130013
#06115:000000130000000000001300
#0611b:0000001300001300
#00012:1400000013130000
#0001a:14
#0001b:0013000000001300
#00015:000000000000130000000000000000000000000013000013
#00018:0000001300000013
#0011b:1313130013130000
#00112:00130013
#00118:0000001300000013
#00115:000000000000000000000013000000000000000000000000
#00212:2413000000130013
#00215:00131300
#0021b:0000001300001300
#00218:000000000000001300000000
#0021a:24
#00912:13130013
#00915:0013000000000000
#00918:0000131300000000
#00916:0013
#0091b:0013
#00917:000000000000000000000000000000000013000000000000
#0101b:13130013
#01018:0013000000000000
#01015:0000131300000000
#01017:0013
#01012:0013
#01016:000000000000000000000000000000000013000000000000
#02415:000000000000000000000013000000000013000000000000
#0241b:00231313
#02412:230000000000000000000000000013000000000000130000
#02418:0000000000130000
#02417:2300000000000013
#02416:00230000
#02515:0013
#02518:000000000000001300000000
#02512:0000230000131300
#0251b:230000000000000000000013000000000013000000000000
#02517:00230000
#02516:23
#02612:000000130000000000000013000000000000000000000000
#0261b:1300130000130000
#02617:000000130000000000000013000000000000000000000000
#02616:00130000
#02618:00000013
#02615:0000000000000013
#02717:13
#02712:1300001300230000
#02716:000000000013000000000000000000000000000000000000
#0271b:0013
#02715:00000023
#02718:0000000000000023
#03816:13
#03812:00130013
#03817:000000000013000000000000000000000000000000000000
#0381b:0013
#03815:0000000000130013
#03818:00000013
#03810:41
#0391b:13130000
#03918:0013000000000000
#03915:00130000
#03912:1300001300000000
#03916:0000000000130000
#03917:0000000000000013
#0411b:000000130000000000000000130000000000000013000000
#04112:000000000000000000000000130000000000000000000013
#04118:00130000
#04115:0000001300000000
#04114:0000000000130000
#04117:000000000000000000000000000000000000000000000013
#04119:0000000000130000
#04212:000000130000000000000000130000000000000000000013
#04215:0000130000130000
#04218:000000000000000000130000000000000013000000000000
#0421b:000000130013
#04217:000000000000000000000000000000000000000000000013
#04312:00131400
#04318:000000000000000000000000000014000000000000000013
#0431b:0013000000000000
#04317:00130000
#04314:000014
#0431a:00000014
#04316:000000000014
#04418:0013130000000000
#04415:13130000
#0441b:000000000000000000000000130000130000000000000013
#04416:000000000000000000000000000000130000000000000013
#04417:000000000013
#04515:0000130000131300
#0451b:000000130013
#04512:000000130000000000000000130000000000000000000013
#04517:000000000000000000000000000000000000000000000013
#04518:000000000000000000130000000000000013000000000000
#04618:0000130000131300
#04615:000000000000000000130000000000000013000000000000
#04612:000000130013
#0461b:000000130000000000000000130000000000000000000013
#04616:000000000000000000000000000000000000000000000013
#04712:0000130000333353
#04715:0013
#04718:0013
#0471b:0000000000333353
#05118:00130000
#05115:0000001300000000
#0511b:000000130000000000000000130000000000000033130000
#05116:0000000000000013
#05117:000000000000000000000000000000000013000000000000
#05112:0013
#0521b:000000000000000000000000230000000000000000000013
#05212:13000023
#05217:13000023
#05216:0023
#05316:1300001300002300
#05319:001300000000000000000000
#05314:0013000000000000
#05317:000000000013000000000000000000000000000000000000
#05312:000000000000130000000000230000000000000000000013
#0531b:0000001300002300
#01117:0013000000000000
#01116:0000001300000000
#01112:0023
#01115:0000000000230000
#01118:00000023
#0111b:0000000000000023
#00316:24
#00312:005c
#02816:23
#0281b:23
#02812:00000053
#02817:00000053
#00456:0053
#00452:00000063
#00557:0063
#0055b:00000053
#00656:0053
#00652:00000063
#0145b:000000000000000000000053000000000000000000000000
#01456:00000053
#01352:000000000000000000000053000000000000000000000000
#0135b:0000000000130000
#0125b:000000000000000000000053000000000000000000000000
#01252:0000000000130000
#0215b:00130053
#02152:13
#0225b:000000000000000000000063000000000000000000000000
#02257:00130000
#02252:00130000
#03352:53
#03356:00630000
#03757:6300000000000063
#0375b:00530053
#03752:0000000000630000
#03756:00000063
#00356:54
#01558:00000053
#0175b:000000000000000000000063000000000000000000000000
#01752:0000000000130000
#01852:000000000000000000000063000000000000000000000000
#0185b:00000063
#01955:63
#01958:63
#02052:00130013
#0205b:13
#0235b:6300005300001300
#02357:000000000053000000000000530000000000000000000000
#02356:00000013
#02352:0063
#0365b:0000530013530000
#03652:00531363
#03655:0000005300000000
#03658:0000005300000000
#03657:00000053
#03656:0000000000000053
#04052:13
#04055:0013000000000000
#04058:00130000
#0405b:0000001300000000
#04056:000000000000000000000000000000000000000000000063
#0495b:00131300
#04952:0000005300001300
#0545b:000000000000530000000000000000000000000000000063
#05457:00000013
#05452:00000013
#05552:0000000053000063
#05556:000000000000000000000000000000000063000000000000
#05656:2354000000000000
#05652:0016
#05658:0016
#05752:0063001300000000
#05758:00630000
#05755:00530000
#0575b:0000001300000000
#05958:0000001300000000
#0595b:00530000
#05957:0063000000000000
#05952:00630000
#05955:0000001300000000
#06152:53
#06158:0053000000000000
#06155:00630000
#0615b:0000006300000000
#06256:00530000
#0625b:00530000
#06258:0053000000000000
#06252:0013
#06257:0013
#00857:0063
#0085b:00000053
#00956:0053
#00952:00000063
#01057:0063
#0105b:00000053
#0165b:0000000000130000
#01652:000000000000000000000063000000000000000000000000
#0245b:00130013
#02452:13
#02552:00130063
#0255b:13
#0265b:00130000
#02656:00130000
#02652:000000000000000000000053000000000000000000000000
#02752:5300005300000000
#02756:000000000063000000000000000000000000000000000000
#02856:63
#0285b:63
#0345b:63
#03457:00530000
#03856:53
#03852:00630000
#0415b:0013000000000000
#04157:000000000000000000000000000000000000000000000053
#04252:000000130000000000000000000000000000000000000063
#04357:00630000
#04455:00630000
#0445b:000000000000000000000000000000000000000000000053
#04552:000000130000000000000000000000000000000000000053
#0465b:000000130000000000000000000000000000000000000053
#04752:00530000
#04755:0053
#04758:0053
#04852:0013
#0485b:00000013
#05052:000000000000530000000000000000000000000000000053
#0505b:00000013
#05056:00000013
#05352:00131300
#0535b:0000006300001300
#0525b:0013
#05252:53000013
#05257:53
#05157:000000000000000000000000000000000053000000000000
#0515b:0000000063000053
#01152:0013
#01155:0000000000130000
#01158:00000013
#0115b:0000000000000013
#003360:14
#003320:002c
#004360:0013
#004320:000000000000000000000000000000000023000000000000
#004320:00000013
#005360:23
#005370:0013
#0053b0:000000000000000000000000000000000023000000000000
#0053b0:00000013
#006370:23
#006360:0013
#006320:000000000000000000000000000000000023000000000000
#006320:00000013
#007360:23
#008370:0013
#0083b0:000000000000000000000000000000000023000000000000
#0083b0:00000013
#009370:23
#009360:0013
#009320:000000000000000000000000000000000023000000000000
#009320:00000013
#010360:23
#010370:0013
#0103b0:000000000000000000000000000000000023000000000000
#0103b0:00000013
#011370:23
#011321:1323000000000000
#0113b1:0000132300000000
#012321:000000132300000000000000
#0123b1:000000000000000000000013000000000000000000000000
#012371:0000000000230000
#0133b1:000000132300000000000000
#013321:000000000000000000000013000000000000000000000000
#013361:0000000000230000
#014381:000000132300000000000000
#0143b1:000000000000000000000013000000000000000000000000
#014371:0000000000230000
#014361:00000013
#015321:23
#015381:00000013
#0163b1:23
#0163b1:000000132300000000000000
#016321:000000000000000000000013000000000000000000000000
#016361:0000000000230000
#0173b1:000000000000000000000013000000000000000000000000
#017371:0000000000230000
#018321:000000000000000000000013000000000000000000000000
#018361:00000023
#0183b0:00000013
#019380:33
#0193b0:0033332300000000
#019351:13
#019321:0033332300000000
#0213b1:00000013
#022371:23
#0223b1:000000000000000000000013000000000000000000000000
#022371:0000000000230000
#0233b1:13
#023371:0023000000000000
#023320:000000130023000000000000000000000000000000000000
#023371:000000000013000000000000330000000000000000000000
#0233b1:000000000000000033330000000000000000230000000000
#023320:0013
#023360:00000023
#025320:00000013
#026360:23
#026320:000000000000000000000013000000000000000000000000
#026360:0000000000230000
#027320:13
#027360:0023000000000000
#0273b1:000000130023000000000000000000000000000000000000
#027360:000000000013000000000000230000000000000000000000
#027320:000000000000000033330000000000000000000000000000
#028360:13
#028320:00003323
#0283b1:13
#028371:00003323
#032321:1323000000000000
#0323b1:0000132300000000
#033321:13
#033361:000000000023000000000000000000000000000000000000
#033361:00130000
#033321:0023
#0343b1:13
#034371:000000000023000000000000000000000000000000000000
#034371:00130000
#0343b1:0023
#035321:0000000013230000
#0353b1:0000000000001323
#036321:00132300
#036351:0000003300000000
#0363b0:00132300
#036380:0000003300000000
#0363b0:0000000000130023
#036370:00000033
#036321:00000013
#036361:0000000000000033
#037321:23
#037370:13
#0373b0:000000000023000000000000000000000000000000000000
#0373b0:00130000
#037370:0023
#037320:0000000000130023
#037360:00000033
#0373b1:00000013
#037371:0000000000000033
#0383b1:23
#038360:13
#038320:000000000023000000000000000000000000000000000000
#038320:00130000
#038360:0023
#0393b0:0000000013230000
#039320:0000000000001323
#040370:000000000000000000132300
#040360:000000000000000000000000000000000000000000000013
#041320:0023000000000000
#041360:000000000000000000132300
#041370:000000000000000000000000000000000000000000000013
#0423b0:0023000000000000
#042350:000000000000000000132300
#042320:000000000000000000000000000000000000000000000013
#043360:0023000000000000
#043370:00130000
#0433b0:0023
#044350:00130000
#044320:0023
#044320:000000000000000000132300
#0443b0:000000000000000000000000000000000000000000000013
#045370:0023000000000000
#045320:000000000000000000000000000000000000000000000013
#046360:0023000000000000
#0463b0:000000000000000000000000000000000000000000000013
#047370:00230000
#047321:0000130000333323
#047351:0033
#047380:0013
#0473b0:0000000000333323
#049320:0000001300000000
#049360:0023
#050320:00130000
#050360:0023
#050320:000000000000000000000000000000000000000000000013
#051360:0023000000000000
#0513b0:0013
#051370:0000000000230000
#051341:000000000000000000000000000000130023000000000000
#051370:000000000000000000000000000000000013000000000000
#0513b0:000000000000000000000000000000000000000033330000
#052370:33
#0523b0:00230000
#052321:13
#052361:00230000
#0533b1:0000001300000000
#053371:0023
#0543b1:00130000
#054371:0023
#0543b1:000000000000000000000000000000000000000000000013
#055371:0023000000000000
#055321:0013
#055361:0000000000230000
#055390:000000000000000000000000000000130023000000000000
#055361:000000000000000000000000000000000013000000000000
#055321:000000000000000000000000000000000000000033330000
#056361:53
#056321:0023000000000000
#056360:0014000000000000
#056380:0026
#057320:0013002300000000
#057350:00330000
#057381:00130000
#0573b1:0000002300000000
#059371:0013000000000000
#0593b1:00330000
#059381:0000002300000000
#059320:00130000
#059350:0000002300000000
#061320:13
#061350:0023000000000000
#061381:0013000000000000
#0613b1:00230000
#061350:00130000
#061320:0000002300000000
#0613b1:0000001300000000
#061381:0023
#062381:0013000000000000
#0623b1:00330000
#062371:0023
#062360:00130000
#062320:0023
#0579b0:000000000000000000000000000000130053000000530053
#057980:000000000000000000535300
#058980:535300530000000000000000
#0589b0:000000000000000000000000000000000000000000000000000000000000000000000000000000000000000000000000000000000000000000000000000000000000000000000000000000000000000000000000000000000000000000000000000000000000000000000000000000000000000000000000000000000000000000000000000000000000000000000000000000000000000000000000000000000000000000000000000000000000000000000000000000000000000000000000000000000000000000000000000000000000000000000000000000000000000000000000000000000000000000000000530000000000000000000000000000000000000000000000000000000000000000000000000000000000000000000000000000000000000000000000000000000000000000000000000000000000000000000000000000000000000000000000000000000000000000000000000000000000000000000000000000000000000000000000000000000000000000000000000000000000000000000000000000005300000000000000000000000000000000000000000000000000000000000000000000000000000000000000000000000000000000000000000000000000000000000000000000000000000000000000000000000000000000000000000000000000000000000000000000000000000000000000000000000000000000000000000000000000000000000000000000000000000000000000000000000000000000000000000000000000000000000000000000000000000000000000000000000000000000000000000000000000000000000000000000000000000000000000000000000000000000000000000000000000000000000000000000000000000000000000000000000000000000000000000000000000000000000000000000000000000000000000000000000000000000000000000000000000000000535353230000000000000000000000000000000000000000000000000000000000000000000000000000000000000000000000000000000000000000000000000000000000000000000000000000000000000000000000000000000000000000000000000000000000000000000000000000000000000000000000000000000000000000000000000000000000000000000000000000000000000000000000000000000000000000000000000000000000000000000000000000000000000000000000000000000000000000000000000000000000000000000000000000000000000000000000000000000000000000000000000000000000000000000000000000000000000000000000000000000000000000000000000000000000000000000000000000000000000000000000000000000000000000000000000000000000000000000000000000000000000000000000000000000000000000000000000000000000000000000000000000000000000000000000000000000000000000000000000000000000000000000000000000000000000000000000000000000000000000000000000000000000000000000000000000000000000000000000000000000000000000000000000000000000000000000000000000000000000000000000000000000000000000000000000000000000000000000000000000000000000000000000000000000000000000000000000000000000000000000000000000000000000000000000000000000000000000000000000000000000000000000000000000000000000000000000000000000000000000000000000000000000000000000000000000000000000000000000000000000000000000000000000000000000000000000000000000000000000000000000000000000000000000000000000000000000000000000000000000000000000000000000000000000000000000000000000000000000000000000000000000000000000000000000000000000000000000000000000000000000000000000000000000000000000000000000000000000000000000000000000000000000000000000000000000000000000000000000000000000000000000000000000000000000000000000000000000000000000000000000000000000000000000000000000000000000000000000000000000000000000000000000000000000000000000000000000000000000000000000000000000000000000000000000000000000000000000000000000000000000000000000000000000000000000000000000000000000000000000000000000000000000000000000000000000000000000000000000000000000000000000000000000000000000000000000000000000000000000000000000000000000000000000000000000000000000000000000000000000000000000000000000000000000000000000000000000000000000000000000000000000000000000000000000000000000000000000000000000000000000000000000000000000000000000000000000000000000000000000000000000000000000000000000000000000000000000000000000000000000000000000000000000000000000000000000000000000000000000000000000
#057921:000000000000000000000000000000130053000000530053
#057951:000000000000000000535300
#058951:535300530000000000000000
#058921:000000000000000000000000000000000000000000000000000000000000000000000000000000000000000000000000000000000000000000000000000000000000000000000000000000000000000000000000000000000000000000000000000000000000000000000000000000000000000000000000000000000000000000000000000000000000000000000000000000000000000000000000000000000000000000000000000000000000000000000000000000000000000000000000000000000000000000000000000000000000000000000000000000000000000000000000000000000000000000000000530000000000000000000000000000000000000000000000000000000000000000000000000000000000000000000000000000000000000000000000000000000000000000000000000000000000000000000000000000000000000000000000000000000000000000000000000000000000000000000000000000000000000000000000000000000000000000000000000000000000000000000000000000005300000000000000000000000000000000000000000000000000000000000000000000000000000000000000000000000000000000000000000000000000000000000000000000000000000000000000000000000000000000000000000000000000000000000000000000000000000000000000000000000000000000000000000000000000000000000000000000000000000000000000000000000000000000000000000000000000000000000000000000000000000000000000000000000000000000000000000000000000000000000000000000000000000000000000000000000000000000000000000000000000000000000000000000000000000000000000000000000000000000000000000000000000000000000000000000000000000000000000000000000000000000000000000000000000000000535353230000000000000000000000000000000000000000000000000000000000000000000000000000000000000000000000000000000000000000000000000000000000000000000000000000000000000000000000000000000000000000000000000000000000000000000000000000000000000000000000000000000000000000000000000000000000000000000000000000000000000000000000000000000000000000000000000000000000000000000000000000000000000000000000000000000000000000000000000000000000000000000000000000000000000000000000000000000000000000000000000000000000000000000000000000000000000000000000000000000000000000000000000000000000000000000000000000000000000000000000000000000000000000000000000000000000000000000000000000000000000000000000000000000000000000000000000000000000000000000000000000000000000000000000000000000000000000000000000000000000000000000000000000000000000000000000000000000000000000000000000000000000000000000000000000000000000000000000000000000000000000000000000000000000000000000000000000000000000000000000000000000000000000000000000000000000000000000000000000000000000000000000000000000000000000000000000000000000000000000000000000000000000000000000000000000000000000000000000000000000000000000000000000000000000000000000000000000000000000000000000000000000000000000000000000000000000000000000000000000000000000000000000000000000000000000000000000000000000000000000000000000000000000000000000000000000000000000000000000000000000000000000000000000000000000000000000000000000000000000000000000000000000000000000000000000000000000000000000000000000000000000000000000000000000000000000000000000000000000000000000000000000000000000000000000000000000000000000000000000000000000000000000000000000000000000000000000000000000000000000000000000000000000000000000000000000000000000000000000000000000000000000000000000000000000000000000000000000000000000000000000000000000000000000000000000000000000000000000000000000000000000000000000000000000000000000000000000000000000000000000000000000000000000000000000000000000000000000000000000000000000000000000000000000000000000000000000000000000000000000000000000000000000000000000000000000000000000000000000000000000000000000000000000000000000000000000000000000000000000000000000000000000000000000000000000000000000000000000000000000000000000000000000000000000000000000000000000000000000000000000000000000000000000000000000000000000000000000000000000000000000000000000000000000000000000000000000000000000000000000
#0599b1:000000000000000000000000000000130053000000530053
#059981:000000000000000000535300
#060981:53530000
#0609b1:000000000000000000000000000000000000000000000000000000000000000000000000000000000000000000000000000000000000000000000000000000000000000000000000000000000000000000000000000000000000000000000000000000000000000000000000000000000000000000000000000000000000000000000000000000000000000000000000000000000000000000000000000000000000000000000000000000000000000000000000000000000000000000000000000000000000000000000000000000000000000000000000000000000000000000000000000000000000000000000000530000000000000000000000000000000000000000000000000000000000000000000000000000000000000000000000000000000000000000000000000000000000000000000000000000000000000000000000000000000000000000000000000000000000000000000000000000000000000000000000000000000000000000000000000000000000000000000000000000000000000000000000000000000000000000000000000000000000000000000000000000000000000000000000000000000000000000000000000000000000000000000000000000000000000000000000000000000000000000000000000000000000000000000000000000000000000000000000000000000000000000000000000000000000000000000000000000000000000000000000000000000000000000000000000000000000000000000000000000000000000000000000000000000000000000000000000000000000000000000000000000000000000000000000000000000000000000000000000000000000000000000000000000000000000000000000000000000000000000000000000000000000000000000000000000000000000000000000000000000000000000000000000000000000000000000000000000000000000053535353230000000000000000000000000000000000000000000000000000000000000000000000000000000000000000000000000000000000000000000000000000000000000000000000000000000000000000000000000000000000000000000000000000000000000000000000000000000000000000000000000000000000000000000000000000000000000000000000000000000000000000000000000000000000000000000000000000000000000000000000000000000000000000000000000000000000000000000000000000000000000000000000000000000000000000000000000000000000000000000000000000000000000000000000000000000000000000000000000000000000000000000000000000000000000000000000000000000000000000000000000000000000000000000000000000000000000000000000000000000000000000000000000000000000000000000000000000000000000000000000000000000000000000000000000000000000000000000000000000000000000000000000000000000000000000000000000000000000000000000000000000000000000000000000000000000000000000000000000000000000000000000000000000000000000000000000000000000000000000000000000000000000000000000000000000000000000000000000000000000000000000000000000000000000000000000000000000000000000000000000000000000000000000000000000000000000000000000000000000000000000000000000000000000000000000000000000000000000000000000000000000000000000000000000000000000000000000000000000000000000000000000000000000000000000000000000000000000000000000000000000000000000000000000000000000000000000000000000000000000000000000000000000000000000000000000000000000000000000000000000000000000000000000000000000000000000000000000000000000000000000000000000000000000000000000000000000000000000000000000000000000000000000000000000000000000000000000000000000000000000000000000000000000000000000000000000000000000000000000000000000000000000000000000000000000000000000000000000000000000000000000000000000000000000000000000000000000000000000000000000000000000000000000000000000000000000000000000000000000000000000000000000000000000000000000000000000000000000000000000000000000000000000000000000000000000000000000000000000000000000000000000000000000000000000000000000000000000000000000000000000000000000000000000000000000000000000000000000000000000000000000000000000000000000000000000000000000000000000000000000000000000000000000000000000000000000000000000000000000000000000000000000000000000000000000000000000000000000000000000000000000000000000000000000000000000000000000000000000000000000000000000000000000000000000000000000000000000000000000000000
#059920:000000000000000000000000000000130053000000530053
#059950:000000000000000000535300
#060950:53530000
#060920:000000000000000000000000000000000000000000000000000000000000000000000000000000000000000000000000000000000000000000000000000000000000000000000000000000000000000000000000000000000000000000000000000000000000000000000000000000000000000000000000000000000000000000000000000000000000000000000000000000000000000000000000000000000000000000000000000000000000000000000000000000000000000000000000000000000000000000000000000000000000000000000000000000000000000000000000000000000000000000000000530000000000000000000000000000000000000000000000000000000000000000000000000000000000000000000000000000000000000000000000000000000000000000000000000000000000000000000000000000000000000000000000000000000000000000000000000000000000000000000000000000000000000000000000000000000000000000000000000000000000000000000000000000000000000000000000000000000000000000000000000000000000000000000000000000000000000000000000000000000000000000000000000000000000000000000000000000000000000000000000000000000000000000000000000000000000000000000000000000000000000000000000000000000000000000000000000000000000000000000000000000000000000000000000000000000000000000000000000000000000000000000000000000000000000000000000000000000000000000000000000000000000000000000000000000000000000000000000000000000000000000000000000000000000000000000000000000000000000000000000000000000000000000000000000000000000000000000000000000000000000000000000000000000000000000000000000000000000000053535353230000000000000000000000000000000000000000000000000000000000000000000000000000000000000000000000000000000000000000000000000000000000000000000000000000000000000000000000000000000000000000000000000000000000000000000000000000000000000000000000000000000000000000000000000000000000000000000000000000000000000000000000000000000000000000000000000000000000000000000000000000000000000000000000000000000000000000000000000000000000000000000000000000000000000000000000000000000000000000000000000000000000000000000000000000000000000000000000000000000000000000000000000000000000000000000000000000000000000000000000000000000000000000000000000000000000000000000000000000000000000000000000000000000000000000000000000000000000000000000000000000000000000000000000000000000000000000000000000000000000000000000000000000000000000000000000000000000000000000000000000000000000000000000000000000000000000000000000000000000000000000000000000000000000000000000000000000000000000000000000000000000000000000000000000000000000000000000000000000000000000000000000000000000000000000000000000000000000000000000000000000000000000000000000000000000000000000000000000000000000000000000000000000000000000000000000000000000000000000000000000000000000000000000000000000000000000000000000000000000000000000000000000000000000000000000000000000000000000000000000000000000000000000000000000000000000000000000000000000000000000000000000000000000000000000000000000000000000000000000000000000000000000000000000000000000000000000000000000000000000000000000000000000000000000000000000000000000000000000000000000000000000000000000000000000000000000000000000000000000000000000000000000000000000000000000000000000000000000000000000000000000000000000000000000000000000000000000000000000000000000000000000000000000000000000000000000000000000000000000000000000000000000000000000000000000000000000000000000000000000000000000000000000000000000000000000000000000000000000000000000000000000000000000000000000000000000000000000000000000000000000000000000000000000000000000000000000000000000000000000000000000000000000000000000000000000000000000000000000000000000000000000000000000000000000000000000000000000000000000000000000000000000000000000000000000000000000000000000000000000000000000000000000000000000000000000000000000000000000000000000000000000000000000000000000000000000000000000000000000000000000000000000000000000000000000000000000000000000000000000
