This file was generated by Ched 2.7.0.0.
#TITLE ""
#ARTIST ""
#DESIGNER ""
#DIFFICULTY 0
#PLAYLEVEL
#SONGID ""
#WAVE ""
#WAVEOFFSET 0
#JACKET ""
#REQUEST "ticks_per_beat 480"
#00002: 4
#BPM01: 115
#00008: 01
#TIL00: ""
#VOLUME: ""
#HISPEED 00
#MEASUREHS 00
#00415:0013000013000000
#00418:0000131300000000
#00412:230000000000000000000000000000000033130000000000
#00410:41
#06312:0013
#0631b:0013
#06318:1300001300000000
#06315:00130000
#00615:0013000013000000
#00618:0000131300000000
#00612:000000000000000000000000000000000033130000000000
#00715:00131313
#00718:0013000000130000
#00712:0000000000000013
#0071b:0000001300000000
#00815:0013001300000000
#00818:000000000000130000000000000000000033130000000000
#0081b:1313
#01218:0013130000000013
#01215:000000000013000013000000000000000000130000000000
#0121b:000000000000000000000013000000000000000000000000
#01212:26
#01210:41
#01418:0013130000330000
#01415:000000000013000013000000000000000000000000000000
#0141b:000000000000000000000013000000000000000000000000
#01518:000000000000000000000013000000000000000000000000
#0151b:0000000000130000
#01512:13000013
#01515:003333330000130000000000
#02112:00130000
#0211b:000000000000000000000013330033330033000000000000
#02118:00230013
#02115:23
#02212:0013000000000000
#02218:000000000000130000000013000000000000000000130000
#02215:000000001300000000130000
#02312:130000330033000033000000130000000000000000000000
#02315:0000001300000000
#03218:1313000000130000
#03215:0000131300001300
#0321b:0000000000000013
#03212:0023
#03315:1300000000000013
#03312:000000000033130000000000000000000000000000000000
#03318:00000013
#03415:0000000000130000
#03418:13000013
#0341b:000000000033130000000000000000000000000000130000
#0361b:13
#03618:0013000000130013
#03615:00130013
#03612:0000001300000000
#03518:0013001300000013
#03515:00130013
#03512:1300000000130000
#0351b:0013
#03815:0000000000130013
#03818:000000000033130000000000000000000000130000000000
#0381b:13
#03810:41
#0391b:1300000000130000
#03915:0013000013000013
#03918:00130013
#03912:0000001300000000
#0561b:0000000000130000
#05615:00000013
#05618:0000000000000013
#05612:0023000000000000
#06012:0053000023130000
#06018:0000130000001313
#06015:13
#0601b:0000005300000000
#06112:1313
#06115:0013000000130000
#06118:00130013
#0611b:0000001300000013
#06212:00130000
#06218:00000013
#06215:0000000000000013
#00518:0013000013000000
#00515:0000131300000000
#0051b:000000000000000000000000000000000033130000000000
#00918:0013001300000000
#00915:000000000000130000000000000000000033130000000000
#00912:0013
#01015:0013001300000000
#01018:000000000000130000000000000000000033130000000000
#0101b:0013
#01315:0013130000000013
#01318:000000000013000013000000000000000000130000000000
#01312:000000000000000000000013000000000000000000000000
#02018:0000000000000013
#02012:000000000000000000000013330033330033000000000000
#0201b:23
#02010:41
#02512:00130000
#02518:000000000000230000000013330033330033000000000000
#0251b:00000013
#02515:23
#02418:2300000000000013
#02415:000000000000000000000013330033330033000000000000
#02612:0013000000000000
#02618:0000130000000013
#02615:000000001300000000130000
#0261b:000000000000000000000013000000000000000000000000
#02715:130000330033000033000000000000000000000000230000
#02712:0000001300000000
#0271b:0000000000230000
#02718:00000023
#03712:13
#03715:000000000033130000000000000000130000000000130000
#03718:00000013
#01112:0013000023000000
#01115:00130023
#01118:0000001300230000
#0111b:0000000000000023
#0401b:13
#04015:0013000000131300
#04018:000000000000130000000000260000000013000013000000
#04012:000000000000000000130000000000000000000000000013
#0401f:0011
#04118:0000130000131300
#04115:000000000000000000130000000000000013000013000000
#0411b:000000000000000000000000000000000000000000000013
#04215:0000130000131300
#04218:000000000000000000130000000000000013000013000000
#04212:000000000000000000000000000000000000000000000013
#04315:000000330000000000000000000000000000000000000013
#0431b:0013
#04318:000000000000003333330000
#04412:000000130000000000000000000000130000000000000013
#04418:130000000000000000000000000000000013000000000000
#0441b:000000130000000000001300
#04415:00000013
#04518:00130013
#04515:000000000000000000130000000000000013000000000000
#0451b:000000000000000000000000000000130000000000000013
#04512:000000000013
#04612:000000000000000000000000000000130000000000000013
#04615:00130013
#0461b:000000000013
#04618:000000000000000000130000000000000013000000000000
#04712:0013
#04715:00130000
#0471b:0013
#0161b:000000130000000000000013000000000000000000000000
#01618:0000130000000013
#01612:001300
#01615:000000000013000000000000000000000000130000000000
#0181b:000000130000000000000013000000000000000000000000
#01818:00130013
#01812:001300
#01815:000000000013000000000000000000000000000000000000
#01712:000000130000000000000013000000000000000000000000
#01715:0000130000000013
#0171b:001300
#01718:000000000013000000000000000000000000130000000000
#0191b:13
#01912:1300000000230000
#01915:00000023
#01918:0000000000000023
#0491b:330033330033000000000000000000000000130000000000
#04915:0000001300002300
#04912:000000000000000000000000000000000000000000000013
#04918:0023
#04910:0041
#0501b:0000000000130000
#05015:000000000000130000000000000000000000130000000013
#05018:000000000013
#05012:330033330033000000000000000000000000000000000000
#05118:0000130000000013
#05115:0000001300000000
#0511b:000000000000000000000000130000330033000033000000
#0521b:1323
#05218:000000000000000000000000000000000000000000000013
#05215:0023
#0481b:000000230000000000000000000000000000000000000013
#04818:00232300
#04815:0000002300000000
#04812:0023
#0481f:0021
#0531b:00000013
#05315:000000000000000000130000000000000000230000000013
#05318:330033330033000000000000230000000000000000000000
#0541b:0000000000130000
#05415:330033330033000000000000000000000000130000000000
#05418:000000000013
#05412:000000000000130000000000000000000000000000000013
#05518:000000000000130000000000130000330033000033000000
#05515:0000001300000000
#0551b:0000000000000013
#05712:0000000000130053
#05715:00000053
#05818:13000013
#05815:0000130000000013
#05812:0000005300130000
#0581b:0053000023000000
#0591b:0000000000130053
#05918:00000053
#00218:00001313
#00215:0000130000130000
#00212:23
#0021b:23
#0011b:0000131300001300
#00115:1313
#00018:0000131300000000
#0001b:00000013
#00012:1313
#03115:00001313
#03118:0000130000130000
#0311b:23
#03112:23
#03012:0000131300001300
#03018:1313
#02915:0000131300000000
#02912:00000013
#0291b:2313
#02910:41
#0031b:23
#00312:23
#02812:23
#0035b:53
#00352:63
#00455:0053
#00452:00000023
#0145b:000000000000000000000053000000000000000000000000
#0125b:000000000000000000000053000000000000000000000000
#02058:00130000
#0205b:53
#02052:000000000000000000000053000000000000000000000000
#02258:000000000000000000000063000000000000000000000000
#06252:00530000
#06255:0013
#00558:0063
#0055b:00000023
#00655:0053
#00652:00000023
#0085b:0053
#00858:00000023
#00952:0063
#00955:00000023
#0105b:0053
#01058:00000023
#01352:000000000000000000000063000000000000000000000000
#01552:53000063
#0215b:000000000000000000000063000000000000000000000000
#02158:00000053
#02155:13
#02352:5353
#02355:0000005300001300
#02458:63
#0245b:00130000
#02455:000000000000000000000063000000000000000000000000
#0265b:000000000000000000000053000000000000000000000000
#02755:63
#02752:0000006300000000
#02558:000000000000000000000053000000000000000000000000
#0255b:00000063
#02555:13
#02852:53
#03355:53
#03352:00230000
#03458:63
#0345b:00230000
#03752:63
#03755:00230000
#0385b:53
#03858:00230000
#0405b:13
#04058:00130000
#04052:000000000000000000000000000000000000000000000063
#04252:000000000000000000000000000000000000000000000063
#0415b:000000000000000000000000000000000000000000000053
#0435b:0063
#0445b:00530000
#04452:000000000000000000000000000000000000000000000063
#0455b:000000000000000000000000000000000000000000000053
#04652:000000000000000000000000000000000000000000000053
#04752:0053
#04755:00630000
#0475b:0063
#0165b:000000000000000000000053000000000000000000000000
#01752:000000000000000000000063000000000000000000000000
#0185b:000000000000000000000063000000000000000000000000
#01858:00000053
#0195b:63
#01952:53
#05055:000000000000630000000000000000000000000000000053
#0515b:0063
#05158:0000000000000063
#0525b:6353
#05258:000000000000130000000000000000000000130000000053
#05255:0053
#05252:00000013
#0485b:000000000000000000000000000000000000130000000063
#04858:0063
#04852:0063
#04855:00000013
#04952:000000000000000000000000000000000000000000000053
#04958:0013
#05452:000000000000530000000000000000000000000000000063
#05558:0053
#0555b:0000000000000053
#05355:000000000000000000000000000000000000000000000063
#05358:0013
#05652:0053000000000000
#01152:0013
#01155:00000013
#0033b0:13
#003380:0023
#003321:13
#003351:0023
#004351:0013
#004321:000000000000000000000000000000000033330000000000
#005351:23
#005381:0013
#0053b1:000000000000000000000000000000000033330000000000
#006381:23
#006351:0013
#006321:000000000000000000000000000000000033330000000000
#007351:23
#0083b1:0013
#008381:000000000000000000000000000000000033330000000000
#0093b1:23
#009321:0013
#009351:000000000000000000000000000000000033330000000000
#010321:23
#0103b1:0013
#010381:000000000000000000000000000000000033330000000000
#0113b1:23
#0123b1:000000000000000000000013000000000000000000000000
#012381:0000000000230000
#013321:000000000000000000000013000000000000000000000000
#013351:0000000000230000
#0143b1:000000000000000000000013000000000000000000000000
#014381:0000000000332300
#015321:13
#015351:003333332300000000000000
#015321:00000013
#016351:23
#0163b1:000000000000000000000013000000000000000000000000
#016381:0000000000230000
#017321:000000000000000000000013000000000000000000000000
#017351:0000000000230000
#0183b1:000000000000000000000013000000000000000000000000
#018381:00000033
#0193b1:33
#019381:0023
#019320:13
#019350:0023
#0203b0:13
#020380:00230000
#020320:000000000000000000000013330033330033000000000000
#020350:00000023
#0213b0:000000000000000000000013330033330033000000000000
#021380:00000033
#0223b0:23
#022380:000000000000000000000013000000000000000000000000
#0223b0:0000000000230000
#023320:130000330033000033000000330000000000000000000000
#023350:0000003300002300
#024380:13
#0243b0:00230000
#024350:000000000000000000000013330033330033000000000000
#024320:00000023
#025380:000000000000000000000013330033330033000000000000
#0253b0:00000033
#026380:23
#0263b0:000000000000000000000013000000000000000000000000
#026380:0000000000230000
#027350:130000330033000033000000230000000000000000000000
#027320:0000003300000000
#028320:13
#028350:00003323
#033350:1323
#033320:000000000033330000000000000000000000000000000000
#034380:1323
#0343b0:000000000033330000000000000000000000000000000000
#037320:1323
#037350:000000000033330000000000000000000000000000000000
#0383b0:1323
#038380:000000000033330000000000000000000000000000000000
#040320:000000000000000000000000000000000000000000000013
#041350:0023000000000000
#0413b0:000000000000000000000000000000000000000000000013
#042380:0023000000000000
#042320:000000000000000000000000000000000000000000000013
#043350:0033230000000000
#0433b0:0013
#043380:000000000000003333332300
#0443b0:00130000
#044380:0023
#044320:000000000000000000000000000000000000000000000013
#045350:0023000000000000
#0453b0:000000000000000000000000000000000000000000000013
#046380:0023000000000000
#046320:000000000000000000000000000000000000000000000013
#047350:00330000
#047320:0033
#048350:23
#0473b1:0013
#048381:23
#048381:0013
#0483b1:00000023
#048320:0013
#048350:00000023
#0483b0:000000000000000000000000000000000000000000000013
#0493b0:330033330033000000000000000000000000000000000000
#049380:00230000
#049320:000000000000000000000000000000000000000000000013
#050320:330033330033000000000000230000000000000000000000
#050350:00330000
#050350:000000000000000000000000000000000000000000000013
#051320:0023000000000000
#0513b0:000000000000000000000000130000330033000033000000
#051380:0000000000000033
#0523b0:33
#052380:00230000
#0523b0:0013
#052380:00000023
#052351:0013
#052321:00000023
#052381:000000000000000000000000000000000000000000000013
#053381:330033330033000000000000000000000000000000000000
#0533b1:00230000
#053351:000000000000000000000000000000000000000000000013
#054351:330033330033000000000000230000000000000000000000
#054321:00330000
#054321:000000000000000000000000000000000000000000000013
#055351:0023000000000000
#055381:000000000000000000000000130000330033000033000000
#0553b1:0000000000000033
#056381:23
#056321:0013000000000000
#056351:0023
#057321:13
#057351:0023000000000000
#057381:00130000
#0573b1:0000002300000000
#0593b1:13
#059381:0023000000000000
#059351:00130000
#059321:0000002300000000
#062321:13330000
#062351:0033000023000000
#057920:0000000000130023
#057950:00000053
#058980:13
#0589b0:0023000000000000
#058950:00130000
#058920:0000002300000000
#0599b0:0000000000130023
#059980:00000053
#060950:13
#060920:0023000000000000
#060980:00130000
#0609b0:0000002300000000
