This file was generated by Ched 2.7.0.0.
#TITLE ""
#ARTIST ""
#DESIGNER ""
#DIFFICULTY 0
#PLAYLEVEL
#SONGID ""
#WAVE ""
#WAVEOFFSET 0
#JACKET ""
#REQUEST "ticks_per_beat 480"
#00002: 4
#BPM01: 115
#00008: 01
#TIL00: ""
#VOLUME: ""
#HISPEED 00
#MEASUREHS 00
#0001a:14
#00112:14
#00518:1414
#00514:00140000
#00612:14
#0061a:0014
#00714:1414
#00718:00140014
#00812:14
#0081a:0014
#00914:1414
#00918:00140000
#02018:00140000
#02012:2414
#02010:41
#0211a:1414
#02114:00140000
#02212:1414
#02218:00140014
#02812:0014
#02814:24
#03014:14
#03018:0014
#03218:14
#00412:0014
#0041a:24
#00410:41
#0101a:14
#01012:0014
#01118:1414
#01114:00140014
#01514:1414
#01518:00140014
#02312:14
#02414:00140000
#0241a:1414
#02512:1414
#02518:00140000
#0261a:1414
#02614:00140014
#0271a:14
#02918:0014
#02910:41
#03114:0014
#03112:24
#0311a:24
#03414:0014
#03418:14
#03512:0014
#0351a:14
#03518:00000014
#0371a:0014
#03714:00000014
#03614:14
#0361a:00140000
#0381a:14
#03812:0014
#03810:41
#03912:0014
#03918:14000014
#04014:14
#0401a:00140000
#0401f:0011
#04318:0014
#04314:00000014
#04418:1414
#04414:00140000
#04814:00000014
#0481a:0024
#0481f:0021
#04912:0014
#0491a:14
#04918:00000014
#04910:0041
#05012:14000014
#05018:0014
#05118:1414
#05112:00140000
#05218:00000014
#05212:0014
#0531a:0014
#05312:14
#05314:00000014
#0541a:14000014
#05414:0014
#04514:0014
#04618:0014
#04714:0014
#04712:0000000000000054
#05614:00000014
#05618:0024
#0571a:14
#05714:0014
#05718:00000014
#05812:14
#05814:00000014
#05818:0024
#0591a:14
#05914:0014
#05918:00000014
#06012:14
#06014:00000014
#0601a:0024
#06118:14
#06112:00140000
#06114:00000014
#0611a:0014
#06218:14
#06212:00140000
#0621a:0014
#06314:14
#0631a:0014
#06312:0014
#05514:1414
#0551a:00140000
#0021a:24
#00212:24
#00318:24
#01210:41
#02352:64
#0275a:54
#02854:64
#02852:0054
#05158:0054
#04554:0064
#04458:0064
#04658:0064
#04754:0054
#0525a:14
#05554:0064
#05652:14
#003380:14
#0033a0:0024
#012380:14
#0123a0:0024
#013340:14
#013320:0024
#014380:14
#0143a0:0024
#016320:14
#016340:0024
#0173a0:14
#017380:0024
#018320:14
#018340:0024
#0193a0:14
#019380:0024
#023320:14
#023340:0024
#0273a0:14
#027380:0024
#028340:14
#028320:0034
#029340:24
#032340:0014
#033320:34
#033340:0024
#036320:0014
#037340:24
#040320:0014
#041340:24
#0413a0:0014
#042380:24
#042320:0014
#043340:24
#044380:0014
#0453a0:24
#045340:0014
#046320:24
#046380:0014
#0473a0:24
#047340:0014
#047320:0000000000000024
#051380:0014
#0523a0:24
#055340:0014
#056320:24
