This file was generated by Ched 2.7.0.0.
#TITLE ""
#ARTIST ""
#DESIGNER ""
#DIFFICULTY 0
#PLAYLEVEL
#SONGID ""
#WAVE ""
#WAVEOFFSET 0
#JACKET ""
#REQUEST "ticks_per_beat 480"
#00002: 4
#BPM01: 86
#00008: 01
#TIL00: ""
#VOLUME: ""
#HISPEED 00
#MEASUREHS 00
#0001a:14
#00014:0014
#00212:14
#00218:0014
#00418:14
#00412:0014
#00410:41
#00614:14
#0061a:0014
#0081a:14
#00814:0014
#00810:41
#00918:14
#00912:0014
#01218:14
#01212:0014
#0131a:14
#01314:0014
#01310:41
#0161a:14
#01614:0014
#0161f:11
#0171a:14
#01714:0014
#01818:14
#01812:0014
#01918:14
#01912:0014
#02012:00160000
#02018:26
#0201f:21
#02010:0041
#02112:16
#02118:00160000
#02218:1616
#02212:00160016
#02418:00160000
#02412:26
#02518:16
#02512:00160000
#02510:0041
#02612:1616
#02618:00160016
#0301a:14
#03014:0014
#03118:14
#03112:0014
#0321a:14
#03214:0014
#02910:0041
#0013a0:1424
#003320:1424
#005380:1424
#007340:1424
#0103a0:1424
#011340:1424
#014380:1424
#015320:1424
#020380:00001626
#021320:00001626
#023380:16363626
#024320:00001626
#025380:00001626
#027320:16363626
#028380:16363626
#029320:16363626
#033380:1424
