This file was generated by Ched 2.7.0.0.
#TITLE ""
#ARTIST ""
#DESIGNER ""
#DIFFICULTY 0
#PLAYLEVEL
#SONGID ""
#WAVE ""
#WAVEOFFSET 0
#JACKET ""
#REQUEST "ticks_per_beat 480"
#00002: 4
#BPM01: 86
#00008: 01
#TIL00: ""
#VOLUME: ""
#HISPEED 00
#MEASUREHS 00
#00015:1313
#00018:0013000000000000
#00012:00130013
#0001b:0000001300000000
#00718:0000001300000000
#00712:130000000033000000000000000000000000000000000000
#00715:000033130000000000000000130000000000000000000000
#00812:0000000000130000
#00818:1313
#00815:0000001300000000
#00810:41
#01015:1300000000000013
#01018:0013000000001300
#01012:00130000
#01118:130000000000000000330013000000000000000000000000
#0111b:000000330013000000000000000000000000000000000000
#01212:1313
#01218:0013000000000000
#01215:000000000000130000000000000033130000000000000000
#0121b:0000001300000000
#02015:0013001300000000
#02018:0000130000130013
#0201b:230000000000000000130000130000000033130000000000
#02012:23
#0201f:21
#02010:0041
#0221a:1400002400002400
#02212:0000140000240000
#02216:0014000024000000
#02215:000000000000000000000000000000000000000000230023
#03318:0012000000000000
#03314:000000000012000000000000000000000000000000000000
#0331a:0000001200000000
#03316:00000052
#02318:000000000000000000002300000000000000000000000000000000000013000000000000000000000000000000000000
#0231b:000000000000000000000013000000000000000000000000
#0321a:0000000024000012
#03216:000000000000000000000000000000240000000000000012
#03218:000033130000000000000000000000000000000000000000
#03215:0000001300000000
#03212:00000024
#0321b:230000000033000000000000000000000000000000000000
#00118:0013000000000000
#00115:00130013
#0011b:0000001300000000
#00112:0013
#00218:0013000013000000
#00215:00130000
#00212:0000001300000000
#0021b:00000013
#00315:0013000000000000
#00318:00130000
#0031b:0000001300000000
#00418:000033130000000000000000130000000000000000000000
#00415:0000001300000000
#0041b:230000000033000000000000000000000000130000000000
#00410:41
#00515:000033130000000000000000130000000000000000000000
#00518:0000001300000000
#00512:230000000033000000000000000000000000130000000000
#00618:000033130000000000000000000000000000000000000000
#00615:0000001300000000
#00616:0000000000240000
#00612:00000024
#0061b:230000000033000000000000000000000000000000000000
#0061a:0024
#0091b:0000000000130000
#00915:1313
#00918:0000001300000000
#0131b:1313
#01315:0013000000000000
#01318:000000000000130000000000000033130000000000000000
#01312:0000001300000000
#01310:41
#01418:13
#01415:0013000000001300
#0141b:00130013
#01515:130000000000000033330013000000000000000000000000
#01512:000000330013000000000000000000000000000000000000
#0161b:1313000000000000
#01615:1313000000000000
#01612:0000000013130000
#01618:0000000013130000
#0161f:11
#0171b:1313000000000000
#01715:1313000000000000
#01712:0000000013130000
#01718:0000000013130000
#01815:0013001300000000
#01812:00130000
#01818:0000000000130013
#0181b:00000013
#0191b:1313
#01918:0013000000130000
#01915:00130013
#01912:0000001300000000
#02115:000000130000000000000000130000000033130000000000
#02118:00130000
#0211b:0000001300000000
#02112:2300001300130013
#02418:0013001300000000
#02415:0000130000130013
#02412:230000000000000000130000130000000033130000000000
#0241b:23
#02612:1400002400002400
#0261a:0000140000240000
#02616:0014000024000000
#02618:000000000000000000000000000000000000000000230023
#02715:000000000000000000002300000000000000000000000000000000000013000000000000000000000000000000000000
#02712:000000000000000000000013000000000000000000230023
#02518:000000130000000000000000130000000033130000000000
#02515:00130000
#02512:0000001300000000
#0251b:2300001300130013
#02510:0041
#0281b:000000000000000000002300000000000000000000000000000000000013000000000000000000000000220000002200
#02818:000000000000000000000013000000000000000000000000
#02913:000000000000000000002200000000000000000000000000000000000012000000000000000000000000000000000000
#02916:000000000000000000000012000000000000000000000000
#02910:0041
#03018:000033130000000000000000130000000000000000000000
#03015:0000001300000000
#0301b:230000000033000000000000000000000000130000000000
#03115:000033130000000000000000130000000000000000330000
#03118:0000001300000000
#03112:230000000033000000000000000000000000130000000000
#00852:0000000000530000
#00858:53
#01052:00630000
#01055:000000000000000000000013000000000000000000000000
#01158:530000000000000000000053000000000000000000000000
#0115b:000000000053000000000000000000000000000000000000
#0205b:00005353
#02058:0000000000230023
#0225a:00000014
#02255:000000000000000000000000000000000000000000000063
#02358:000000000000000000006300000000000000000000000000000000000023000000000000000000000000000000000000
#0235b:000000000000000000000053000000000000000000000000
#00055:0053
#00052:00000053
#00152:0063
#00155:00000063
#00258:0063
#0025b:00000063
#00458:0053000053000000
#0045b:53000053
#00555:0063000063000000
#00552:63000063
#00658:0053000000000000
#0065b:53
#00755:0053000063000000
#00752:53
#0095b:0000000000630000
#00955:63
#01252:0053
#01255:0000000000530000
#0135b:0063
#01358:0000000000630000
#0145b:00530013
#01458:000000000000000000000013000000000000000000000000
#01455:00000013
#01555:630000000000000000000063000000000000000000000000
#01552:000000000063000000000000000000000000000000000000
#0165b:0013000000000000
#01655:0013000000000000
#01658:0000000000130000
#01652:0000000000130000
#01755:0013000000000000
#0175b:0013000000000000
#01758:0000000000130000
#01752:0000000000130000
#01955:00000013
#02155:00005353
#02152:0000000000230023
#02452:00006363
#02455:0000000000230023
#02755:000000000000000000005300000000000000000000000000000000000023000000000000000000000000000000000000
#02752:000000000000000000000063000000000000000000000053
#02558:00006363
#0255b:0000000000230023
#02652:00000014
#02658:000000000000000000000000000000000000000000000053
#0285b:000000000000000000005300000000000000000000000000000000000023000000000000000000000000000000006200
#02858:000000000000000000000063000000000000000000000000
#02953:000000000000000000006200000000000000000000000000000000000022000000000000000000000000000000000000
#02956:000000000000000000000052000000000000000000000000
#03058:0053000053000000
#0305b:53000053
#03155:0063000063000000
#03152:63000063
#03258:0053000000000000
#0325b:53
#03252:00000014
#000350:0013
#000320:00000033
#001350:23
#001320:0013
#001350:00000033
#002320:23
#002380:0013
#0023b0:00000033
#003380:23
#003320:00001323
#0043b0:130000000033230000000000000000000000000000000000
#004380:000033330000000000000000000000000000000000000000
#004380:0013
#0043b0:00000033
#005380:23
#005321:130000000033230000000000000000000000000000000000
#005351:000033330000000000000000000000000000000000000000
#005351:0013
#005321:00000033
#006351:23
#0063b0:130000000033230000000000000000000000000000000000
#006380:000033330000000000000000000000000000000000000000
#007320:130000000033230000000000000000000000000000000000
#007350:000033330000000000000000000000000000000000000000
#007350:0013
#007320:00000023
#008380:13
#0083b0:00230000
#008320:0000000000130000
#008350:0000000000000023
#009350:13
#009320:00230000
#0093b0:0000000000130000
#009380:0000000000000023
#010320:00130000
#010350:000000000000000000330023000000000000000000000000
#011380:130000000000000000330033000000000000000000000000
#0113b0:000000330033000000000000000000000000230000000000
#012320:0000000013000023
#012350:000000000000000000000000000033330000000000000000
#0133b0:0000000013000023
#013380:000000000000000000000000000033330000000000000000
#0143b0:00130000
#014380:000000000000000000330023000000000000000000000000
#015350:130000000000000033330033000000000000000000000000
#015320:000000330033000000000000000000000000230000000000
#0183b0:1323
#018321:0013
#019321:23
#0203b1:000000000000000000000000130000000033330000000000
#020381:0000000000530053
#0213b1:23
#021351:000000000000000000000000130000000033330000000000
#021321:0000000000530053
#022351:23
#022351:000000000000000000000000000000000000000000000013
#023321:000000330023000000000000000000000000000000000000
#023380:000000000000000000001300000000000000000000000000000000000053000000000000000000000000000000000000
#0233b0:000000000000000000330033000000000000230000000000
#024320:000000000000000000000000130000000033330000000000
#024350:0000000000530053
#025320:23
#025380:000000000000000000000000130000000033330000000000
#0253b0:0000000000530053
#026380:23
#026380:000000000000000000000000000000000000000000000013
#0273b0:000000330023000000000000000000000000000000000000
#027351:000000000000000000001300000000000000000000000000000000000053000000000000000000000000000000000000
#027321:000000000000000000330033000000000000230000000000
#027321:000000000000000000000000000000000000000000000013
#028351:000000330023000000000000000000000000000000000000
#0283b0:000000000000000000001300000000000000000000000000000000000053000000000000000000000000000000000000
#028380:000000000000000000330033000000000000230000000000
#0283b0:000000000000000000000000000000000000000000000012
#029380:000000320022000000000000000000000000000000000000
#029331:000000000000000000001200000000000000000000000000000000000052000000000000000000000000000000000000
#029361:000000000000000000320032000000000000220000000000
#0303b1:130000000033230000000000000000000000000000000000
#030381:000033330000000000000000000000000000000000000000
#030381:0013
#0303b1:00000033
#031381:23
#031320:130000000033230000000000000000000000000000000000
#031350:000033330000000000000000000000000000000000000000
#031350:0000000013000033
#031320:00000033
#032350:23
#0323b1:130000000033230000000000000000000000000000000000
#032381:000033330000000000000000000000000000000000000000
#033361:000000000000000000000012000000000000220000000000
