This file was generated by Ched 2.7.0.0.
#TITLE ""
#ARTIST ""
#DESIGNER ""
#DIFFICULTY 0
#PLAYLEVEL
#SONGID ""
#WAVE ""
#WAVEOFFSET 0
#JACKET ""
#REQUEST "ticks_per_beat 480"
#00002: 4
#BPM01: 225.2
#00008: 01
#TIL00: "118'357:10000, 118'358:1"
#VOLUME: ""
#HISPEED 00
#MEASUREHS 00
#00318:14
#01014:14
#0111a:14
#01214:14
#0151a:14
#01712:14
#01818:14
#01912:14
#02018:14
#03612:14
#0371a:14
#04212:16
#04218:0016
#04312:16
#04318:0016
#03818:0016
#03812:26
#03810:41
#03912:16
#04018:16
#04012:0016
#04118:16
#0011a:14
#00214:14
#00412:14
#00718:14
#0051a:14
#00614:14
#00812:14
#0091a:14
#00910:41
#05012:16
#05018:0016
#05112:16
#05118:0016
#04618:0016
#04612:26
#04712:16
#04818:16
#04812:0016
#04918:16
#05918:16
#06012:16
#06412:14
#06410:00000041
#06518:0014
#08812:0016
#08918:16
#08912:0016
#09018:16
#08518:16
#08512:0016
#08510:0041
#08618:0016
#08712:16
#08718:0016
#09612:0016
#09718:16
#09712:0016
#09818:16
#09318:16
#09312:0016
#09418:0016
#09512:16
#09518:0016
#11012:0014
#11218:14
#11314:0014
#1151a:14
#11614:0014
#0351a:14
#0671f:11
#05412:26
#0791a:24
#10518:0026
#10612:0026
#10718:0026
#05518:0026
#05712:26
#08412:0026
#0841f:0021
#09212:0026
#10012:0026
#10218:26
#10312:0026
#0291a:0034
#02819:00000034
#03312:00340000
#03212:0034
#03113:00000034
#02110:41
#05210:41
#0133a0:14
#0143a0:24
#021320:14
#022320:24
#0233a0:14
#0243a0:24
#025340:14
#025330:00000034
#026320:0024
#028380:14
#028390:00000034
#0293a0:0034
#0303a0:00240000
#031340:14
#031330:00000034
#032320:0034
#033320:00340000
#034320:24
#044320:1626
#045380:1626
#052320:1626
#053380:1626
#054320:16
#054330:00000026
#055380:0016
#056370:00260000
#057320:16
#058320:26
#061380:16
#063380:00260000
#067340:14
#069320:24
#071380:14
#0733a0:24
#075320:14
#077340:24
#0793a0:14
#080380:0024
#090320:0016
#091320:26
#091380:0016
#092380:26
#098320:0016
#099320:26
#099380:0016
#100380:26
#100320:0016
#101330:00260000
#102380:16
#102370:00000026
#103320:0016
#104320:0026
#107380:0016
#109360:00000026
#1189d0:000000000000000000000000000000000000000000000000000000000000000000000000000000000000000000000000000000000000000000000000000000000000000000000000000000000000000000000000000000000000000000000000000000000000000000000000000000000000000000000000000000000000000000000000000000000000000000000000000000000000000000000000000000000000000000000000000000000000000000000000000000000000000000000000000000000000000000000000000000000000000000000000000000000000000000000000000000000000000000000000000000000000000000000000000000000000000000000000000000000000000000000000000000000000000000000000000000000000000000000000000000000000000000000000000000000000000000000000000000000000000000000000000000000000000000000000000000000000000000001121000000000000000000000000000000000000000000000000000000000000000000000000000000000000000000000000000000000000000000000000000000000000000000000000000000000000000000000000000000000000000000000000000000000000000000000000000000000000000000000000000000000000000000000000000000000000000000000000000000000000000000000000000000000000000000000000000000000000000000000000000000000000000000000000000000000000000000000000000000000000000000000000000000000000000000000000000000000000000000000000000000000000000000000000000000000000000000000000000000000000000000000000000000000000000000000000000000000000000000000000000000000000000000000000000000000000000000000000000000000000000000000000000000000000000000000000000000000000000000000000000000000000000000000000000000000000000000000000000000000000000000000000000000000000000000000000000000000000000000000000000000000000000000000000000000000000000000000000000000000000000000000000000000000000000000000000000000000000000000000000000000000000000000000000000000000000000000000000000000000000000000000000000000000000000000000000000000000000000000000000000000000000000000000000000000000000000000000000000000000000000000000000000000000000000000000000000000000000000000000000000000000000000000000000000000000000000000000000000000000000000000000000000000000000000000000000000000000000000000000000000000000000000000000000000000000000000000000000000000000000000000000000000000000000000000000000000000000000000000000000000000000000000000000000000000000000000000000000000000000000000000000000000000000000000000000000000000000000000000000000000000000000000000000000000000000000000000000000000000000000000000000000000000000000000000000000000000000000000000000000000000000000000000000000000000000000000000000000000000000000000000000000000000000000000000000000000000000000000000000000000000000000000000000000000000000000000000000000000000000000000000000000000000000000000000000000000000000000000000000000000000000000000000000000000000000000000000000000000000000000000000000000000000000000000000000000000000000000000000000000000000000000000000000000000000000000000000000000000000000000000000000000000000000000000000000000000000000000000000000000000000000000000000000000000000000000000000000000000000000000000000000000000000000000000000000000000000000000000000000000000000000000000000000000000000000000000000000000000000000000000000000000000000000000000000000000000000000000000000000000000000000000000000000000000000000000000000000000000000000000000000000000000000000000000000000000000000000000000000000000000000000000000000000000000000000000000000000000000000000000000000000000000000000000000000000000000000000000000000000000000000000000000000000000000000000000000000000000000000000000000000000000000000000000000000000000000000000000000000000000000000000000000000000000000000000000000000000000000000000000000000000000000000000000000000000000000000000000000000000000000000000000000000000000000000000000000000000000000000000000000000000000000000000000000000000000000000000000000000000000000000000000000000000000000000000000000000000000000000000000000000000000000000000000000000000000000000000000000000000000
