This file was generated by Ched 2.7.0.0.
#TITLE ""
#ARTIST ""
#DESIGNER ""
#DIFFICULTY 0
#PLAYLEVEL
#SONGID ""
#WAVE ""
#WAVEOFFSET 0
#JACKET ""
#REQUEST "ticks_per_beat 480"
#00002: 4
#BPM01: 120
#00008: 01
#TIL00: ""
#VOLUME: ""
#HISPEED 00
#MEASUREHS 00
#0001a:00140000
#00112:14
#00218:14
#00314:14
#0041a:14
#00512:14
#00510:41
#00612:14
#00818:14
#00718:14
#00914:14
#01014:14
#0111a:14
#0121a:14
#02118:0014
#02112:24
#02110:41
#0231a:14
#02314:0014
#02212:14
#0241a:14
#02918:0016
#02912:26
#02910:41
#03012:16
#03018:0016
#03112:16
#03118:0016
#03212:1616
#03318:16
#03312:0016
#03418:16
#03412:0016
#03518:16
#03512:0016
#03618:1616
#04114:1414
#04218:1414
#04312:1414
#0441a:1414
#04914:14
#04918:0014
#05012:14
#0501a:0014
#05412:1616
#05410:41
#05318:2616
#0531f:00210000
#05518:16
#05512:0016
#05618:16
#05612:0016
#05718:1616
#05812:16
#05818:0016
#05912:1616
#06018:16
#06012:0016
#06318:1616
#06412:1616
#06718:16
#06712:0016
#06818:16
#06812:0016
#0691a:14
#06914:0014
#06910:41
#07018:14
#07012:0014
#0711a:14
#07114:0014
#07218:14
#07212:0014
#0731a:1414
#07414:1414
#07518:1414
#07612:1414
#0451f:11
#03710:00410000
#013320:14
#014320:24
#0153a0:14
#0163a0:24
#017340:14
#018340:24
#019380:14
#020380:24
#025320:1424
#0263a0:1424
#027340:1424
#028380:1424
#037340:1424
#038380:1424
#039320:1424
#0403a0:1424
#045340:14
#046320:0024
#047380:14
#0483a0:0024
#051340:14
#052340:24
#061380:1626
#062320:1626
#065380:1626
#066320:1626
#077380:14
#078380:0024
