This file was generated by Ched 2.7.0.0.
#TITLE ""
#ARTIST ""
#DESIGNER ""
#DIFFICULTY 0
#PLAYLEVEL
#SONGID ""
#WAVE ""
#WAVEOFFSET 0
#JACKET ""
#REQUEST "ticks_per_beat 480"
#00002: 4
#BPM01: 120
#00008: 01
#TIL00: ""
#VOLUME: ""
#HISPEED 00
#MEASUREHS 00
#00515:130000000000000000000013000013000000000000130000
#0051b:13230023
#00518:0013001300130000
#00512:00130013
#00510:41
#00618:130000000000000000000013000013000000000000130000
#00612:13230023
#00615:0013001300130000
#0061b:00130013
#00718:130000000000000000000013000013000000000000130000
#00712:1300001300130000
#00715:0013130000001300
#0071b:00230023
#00818:000000130000130000000000000000000013000000000013
#0081b:130000000000000000130000000013000000000013000000
#00815:130000000000000000000013000000130000000000130000
#00812:00230023
#00912:1300001300130013
#00918:0013000000000000
#00916:00130013
#00917:000000000000000000000013000013000000000000000000
#0091b:00230023
#0101b:1300001300130000
#01019:0013000000000013
#01017:00130013
#01016:130000000000000000000013000013000000000000000000
#01012:00230023
#01116:13130013
#01112:0013001300130000
#01114:0000000000000013
#0111b:13230023
#01117:000000000000000000000013000013000000000000000000
#01217:13130000
#0121b:0013001300130000
#01212:1300230000002313
#01216:000000000000000000000013000013000000000000000000
#01218:000000000000000000000000000000000000130000000013
#0141b:0000000000001313
#01415:000000000000000000000000000000000000130000000013
#01412:0000000000130000
#01518:0000000000131300
#01512:000000000000000000000000000000000013000000000000
#01515:000000000013
#0151b:0000000000000013
#01318:000000000000000000000000000000000000000000130013
#01315:000000000000000000000000000000130013000013000000
#0131b:000000000000000000000000000000130013000000000000
#01312:000000000000000000000000000000000000000000000013
#01615:000000000000000000000000000000000013000000130000
#01618:000000130000000000000000000000130000130000000013
#01715:000000000000000000000000000000130013000000130000
#01718:000000000000000000000000000000000000130013000013
#01712:000000000000000000000000000000000000000000000013
#02017:0013130000001300
#02012:00130013
#01916:0000000000000013
#02112:000000130000001300000000
#0211b:2313
#02119:0000001300000000
#02114:0000001300000000
#02115:000000000000000000000000000000000013000000000000
#02118:0000000000130000
#02116:2313
#02110:41
#0221b:13
#02215:0013000000001313
#02218:000000000000000000000000000000000013000013000000
#02318:000000000000000000000000130013000000000013000013
#02318:000000000013
#02315:0000000000000013
#02312:000000000000001300000000
#0241b:0013000000001300
#02412:240000001300000000130000
#02415:000000000000000000000013000013000000000000130000
#02418:0000000013130000
#02416:000000000024000000000000000000000000000000000000
#0241a:0000002400000000
#0251b:13
#02518:000000120000000000000000000000000000000000000013
#02512:1300240000000013
#02516:0012000000000000
#0251a:00240000
#02615:13001313
#02612:0000130000000013
#02618:0000130000000013
#0261b:00001313
#02715:130000000000000000130000000000000000000000000013
#0271b:130000000000000000000013000000130000000000130000
#02712:00131300
#02718:001300
#02716:000000000000000000000000000000000013000000000000
#02818:1313000000000000
#02812:000013000000000000000013000000000000000000240000
#02815:000000000013000000000000000000000000000000000000
#0281a:00140000
#02817:000000000000000000000013000000000000000000000000
#0291b:00130000
#02919:0000001300000013
#02917:24001313
#02910:41
#0301b:13130000
#03019:0000001300000013
#03017:00001313
#0311b:13130000
#03119:0000001300000013
#03117:00001313
#0321b:13131300
#03215:000000130000000000000013000000130000000000000000
#03212:00130013
#03218:000000000000000000130000000000000013000000000000
#03219:0000000000000025
#03312:00130000
#03314:0000001300000013
#03316:00001313
#03315:24
#03412:13130000
#03414:0000001300000013
#03416:00001313
#03512:13130000
#03514:0000001300000013
#03516:00001313
#0351b:00000013
#03612:1300002300130016
#03617:13
#03619:0013000000000000
#0361b:00131323
#03615:00132313
#03618:0000001300230023
#03714:12
#0371b:000000130000000000000000000000000013000000000000
#03712:0000130013000013
#03718:000000000000530053530053530013000000000000000000
#03715:0000000000130000
#03717:0000000000000013
#03710:00410000
#03918:0013000000130000
#03912:000000130000000000000000000000000013000000000000
#0391b:1300130013000013
#03915:000000000000530053530053530013000000000000000000
#03916:1300000000000013
#03816:130000000000130000000000130000000033000000000000
#03812:000000130000000000130000000033130000000000130000
#0381b:130000000033000000000000130000000000130000000000
#03817:000033130000000000000000000000130000000000000000
#04017:130000000000130000000000130000000033000000000000
#0401b:000000130000000000130000000033130000000000130000
#04012:130000000033000000000000130000000000130000000000
#04016:000033130000000000000000000000130000000000000000
#0411b:0013000000000013
#04116:0013000000000013
#04118:0000130013130000
#04115:000000000000001300000000
#04112:130000000000530053530053530000000013000000000000
#04117:13
#04212:130000000033000000000000000000130000000000130000
#04216:000033130000000000000000130000000000130000000000
#0421b:000000130000000000130000130000000033000000000000
#04217:130000000000130000000000000033130000000000000000
#0431b:130000000000000000000000000000000013000000000000
#04314:000013000000000000000000000000130000000000000000
#04319:000000130000000000000000000013000000000000000000
#04312:000000000013000000000000130000000000000000000000
#0441b:13
#04412:00130000
#04418:0053130000000000
#04415:0000005313000000
#0441a:005300000000000000000000000000000000000000000000
#04419:005300000000000000000000
#04413:000000000000005300000000000000000000000000000000
#04414:005300
#04817:0000000000000012
#0491a:0012
#04914:0012
#04912:0000130000000012
#0491b:00130000
#05013:12
#05014:0012000000000000
#05015:00120000
#0501b:0000000000120000
#0501a:00000012
#05019:0000000000000012
#05118:12
#0511c:00220022
#05214:22120000
#0521c:00220022
#0521b:000000000000000000000000000000000000006300000000
#0521a:000000000064
#05219:0000000000000065
#05218:000000000000000000000000000000000000000000006666
#05315:000000000000000000130000000013000000000000130013
#0531b:0013
#05318:660000000000260000000000000000130013000013000000
#05312:00000023
#0531f:00210000
#0541b:13230023
#05418:000000000000000000130000000013000000000000130013
#05415:000000130000000000000000000000130013000013000000
#05412:00131300
#05410:41
#05512:130000000000000000130000000000000000000000130013
#05515:000000230000001300230000
#05518:000000130000130000001300
#0551b:000000130000000000000000000000130013000000000000
#05618:130000230000001300230000
#05615:000000130000130000001300
#0561b:000000000000000000130000000000000000000000130013
#05612:000000130000000000000000000000130013000000000000
#05715:130000000000000000130000000000130013000000000000
#05718:000000130000000000000000000000000000230013000000
#0571b:000000130000131300000000
#05712:000000000000230000000000130000000000000000130013
#05815:000000130000000000000000000000000000230013000000
#05812:000000130000131300000000
#05818:000000000000000000130000000000130013000000000000
#0581b:130000000000230000000000130000000000000000130013
#05919:0013000000002300
#05917:00130000
#05914:000000000000000000130000000000000013000000000000
#05915:1300000000130000
#0591b:0013
#0591a:000000000000001300000000
#05918:000000000013
#05913:0000000000000013
#05912:000000000000230000000000000000000000000000000013
#05916:0013
#06017:13
#0601b:000000530000000000000000130000000000000000000000130000000000000000000000000000003300130000000000
#06018:000000530000000000000000000000000000000000000000000000000000000000000000000000000000000000000000000000000000000000000000000000000000000000000000130000000000000000000000000000000000000000000000000000000000000000000000000000000000000000000000000000000000000000000000000000001300000000000000000000000000000000000000000000000000000000000000000000000000000000000000000000003300000000000000
#06015:000000000000000000000013000000130000000033130000
#06012:000000000000230000000000000000000013000000000033
#06019:0053000000000000000000000000000000000000000000000000000000000000
#0601a:00000053000000000000000000000000000000000000000000000000000000000000000000000000000000000000000000000000000000000000000000000000
#0611b:0013001300000013
#06118:23130000
#06115:000000000000000000000013000013000000000000130000
#06112:23230023
#0621b:13230023
#06212:0013001300000013
#06215:13130000
#06218:000000000000000000000013000013000000000000000000
#06312:1300001300000000
#0631b:000000130000130000000013000000000000000000130000
#06318:130000000000000000130000000000000013000000000000
#06315:000000000000230000000013000000000000230000000000
#0641b:1300001300000013
#06415:1300000013000013
#06412:0013130000000000
#06418:00230023
#06912:000013000000230053000000000000000000000053530053
#06917:0013000000000000
#06918:000000000000000000130053000000000000000000000000
#06915:000000000000135300000000
#0691b:000000000000000000000000000000130053000000000000
#06916:00000023
#06910:41
#06816:000000000000000000000000000000000000000000000013
#06812:130000000013000000000000130000130000130000000000
#06817:00231323
#0681b:0000001300000000
#0701b:000000130000230053000000000000000000000053530053
#07016:0013000000000000
#07017:13000023
#07015:000000000000000000130053000000000000000000000000
#07018:000000000000135300000000
#07012:530000000000000000000000000000130053000000000000
#0731b:000013000000000053000000130000000000000053530053
#07316:0013000000000000
#07312:000000000000000000130000000000000053000000000000
#07315:000000000000000000000053000000130000000000000000
#07318:000000230000005300000000
#07317:00000023
#07412:000000130000000053000000130000000000000053530053
#07417:0013000000000000
#07416:13000023
#0741b:530000000000000000130000000000000053000000000000
#07418:000000000000000000000053000000130000000000000000
#07415:000000230000005300000000
#07712:18
#07118:000000130000000000000000000053000000230000000000
#07112:130000000000000000530053000000000053000000000000
#07115:000053000000230000000000000000130000000000000000
#0711b:530000000053000000000000130000000000000000530053
#07114:000000000000005300000000000000000000000000000000
#07113:005300
#07119:000000000000000000000000000000000000005300000000
#0711a:000000000053
#0761b:130000000000000000535353530000000000000000000000
#07616:00002324
#07612:00230000
#07619:000053000000005300000000000000000000003434343434
#0761a:005300000000000053000000000000000000000000000000
#07618:000000535353530000000000000000000000000000000000
#07517:000000000000001300000000000000000000000000000000
#07514:000000231300000000000000
#07512:5313000000000000
#0751b:0000000000130000
#07516:000000000000000000000000000000000000001300000000
#07519:000000000000000000231300
#07215:000053000000000000530000000000000000000000000013
#07218:0013000000000000
#07212:13230000
#07213:000000000000005300000000000000000000000000000000
#07214:005300
#0721b:000000000053000000000000000000000000000000000000
#01812:0000000000130000
#0181b:00000013
#01815:00000013
#0451f:11
#04517:22
#0661b:1300001313000013
#06615:1300000013000013
#06612:000000130000130000000000000053000013000000000000
#06618:000000230000005300230000
#06512:1300001313000013
#06518:1300000013000013
#0651b:000000130000130000000000000053000013000000000000
#06515:000000230000005300230000
#0671b:000000000013
#06714:0013000000130013
#06719:000000000000000000000000000000000000000000000013
#06712:1313
#06718:13
#06716:00230023
#00017:00220000
#00117:00220022
#00217:00220022
#00317:00220022
#00417:00220022
#00418:000000000000000000000000000000000000005200000000
#00419:000000000052
#0041a:0000000000000052
#07812:0053
#00452:00000012
#00855:000000000000000000000013000000000000000000000000
#01358:000000000000000000000000000000000000000000000013
#0155b:0000000000000013
#01758:000000000000000000000000000000000000000000000013
#01956:0000000000000063
#0195b:0000000000000013
#02052:00530013
#02057:00530013
#0205b:0013
#02056:0013
#02156:13
#0215b:23
#0245b:00000013
#02452:00000013
#0255b:53
#02558:0022000000000000
#0255a:00440000
#02552:63340000
#02556:0022000000000000
#02655:1323
#0265b:0023
#02755:13
#0275b:13
#02752:0053
#02756:000000000000000000000000000000000013000000000000
#02957:4413
#0305b:13
#03057:0013
#0315b:13
#03157:0013
#0325b:1313
#03252:00000013
#0285a:00140000
#02856:00000013
#0285b:00000013
#02852:000000000000000000000053000000000000000000000000
#02857:000000000000000000000053000000000000000000000000
#03356:0013
#03355:34
#03452:13
#03456:0013
#03552:13
#03556:0013
#03652:1300000000000056
#03754:22
#0375b:000000000000000000000000000000000013000000000000
#03752:00130000
#03952:000000000000000000000000000000000013000000000000
#0395b:00130000
#03856:00136313
#03852:0000000000230000
#0385b:63130013
#03857:0023000000000000
#04057:00135313
#0405b:0000000000230000
#04052:53130013
#04056:0023000000000000
#04152:000000000000000000000000000000000013000000000000
#04158:00130000
#04252:53130000
#04256:0023000000001300
#04257:0000130000230000
#0425b:00006313
#04457:00000013
#04857:0000000000000022
#04954:0062
#0495a:0062
#04952:00130000
#0495b:00130000
#05152:12
#05158:12
#0505c:0000001200000000
#05352:00160000
#05358:16160000
#05254:00220000
#0545b:13
#05552:13
#05658:13
#05755:13
#0585b:13
#05955:13
#0605b:0000000013000053
#06052:000000000000000000000000000000000053000000000000
#06058:000000000000000000000000000000000053000000000000
#06055:0000000000000053
#06152:13
#06158:13
#0625b:13
#06352:1300005300000000
#06355:000000000000000000000053000000000000000000000000
#0635b:000000000000000000000063000000000000000000000000
#06856:000000000000000000000000000000000000000000000013
#06852:13000053
#0685b:000000000000000000000000000000000000000000000013
#06957:0063000000000000
#07056:0053000000000000
#07356:0053000000000000
#07457:0063000000000000
#07652:00000013
#07656:00005354
#0765b:0013
#0775a:14
#07752:58
#07255:000000000000000000000000000000000000000000000013
#02352:000000000000005300000000
#02358:000000000000005300000000
#0645b:13
#06552:13
#0665b:13
#06758:63
#001350:12000022
#002340:12000022
#003330:12000022
#004320:12000022
#013350:1323
#0133b1:0013000023000000
#014351:001300000000230000000000
#0143b0:0013000023000000
#015380:1323
#015321:0013000023000000
#016321:130000000023000000000000000000000000000000000000
#016380:000000000013000000000000230000000000000000000000
#016321:000013230000
#017351:1323
#0173b0:0013000023000000
#018350:001300000000230000000000
#0183b1:0013000023000000
#018321:0000000000000013
#019321:23
#019380:1323000000000000
#019331:0013230000000000
#019390:0000132300000000
#019341:0000001323000000
#0193a0:0000000013230000
#019351:0000000000132300
#0193b0:0000000000001323
#019361:0000000000000013
#020321:0033330000000000
#020361:0023
#020370:00130000
#0203b0:0023
#0213b0:13
#021370:00230000
#0213b0:0000000000001323
#021321:0000000000000013
#022321:23
#022381:000000000013000023000000000000000000000000000000
#022320:000000000000000013000023000000000000000000000000
#0223b1:000000000000000000000013000023000000000000000000
#022350:000000000000000000000000000013000023000000000000
#0233b0:1323000000000000
#023351:0013230000000000
#023380:0000132300000000
#023321:0000001323000000
#023381:000000000000001300000000
#0233b1:000000000000000000000000000000000023000000000000
#023320:000000000000001300000000
#023350:000000000000000000000000000000000023000000000000
#0253b0:13
#025380:0052000000000000
#0253a0:00240000
#025321:13240000
#025361:0052000000000000
#025361:0000000000000000000000000000000012525252525252522200000000000000
#025351:00000000000000000000000000000000000000000000000000000000000000000052005200520052005200520052005200000000000000000000000000000000
#025380:0000000000000000000000000000000012525252525252522200000000000000
#025390:00000000000000000000000000000000000000000000000000000000000000000052005200520052005200520052005200000000000000000000000000000000
#026350:0000001353000000
#026320:0000000000230000
#0263b1:0000001353000000
#026381:0000000000230000
#027321:0013
#027361:0000000000230000
#028321:000000000000000000130033000000000000000000000000
#028361:0000000000332300
#028370:000000000000000000130033000000000000000000000000
#0283b0:0000000000332300
#028320:0000000000000014
#029320:3454545454545454545454545454545454545454545454545454545454545454
#029330:00520052005200520052005200520052005200520052005200520052005200520052005200520052005200520052005200520052005200520052005200520052
#030320:5454545454545454545454545454545454545454545454545454545454545454
#030330:00520052005200520052005200520052005200520052005200520052005200520052005200520052005200520052005200520052005200520052005200520052
#031320:5454545454545454545454545454545454545454545454545454545454545454
#031330:00520052005200520052005200520052005200520052005200520052005200520052005200520052005200520052005200520052005200520052005200520052
#032320:24
#032390:0000000000000015
#033390:3555555555555555555555555555555555555555555555555555555555555555
#0333a0:00530053005300530053005300530053005300530053005300530053005300530053005300530053005300530053005300530053005300530053005300530053
#034390:5555555555555555555555555555555555555555555555555555555555555555
#0343a0:00530053005300530053005300530053005300530053005300530053005300530053005300530053005300530053005300530053005300530053005300530053
#035390:5555555555555555555555555555555525000000000000000000000000000000
#0353a0:00530053005300530053005300530053005300530053005300530053005300530000000000000000000000000000000000000000000000000000000000000000
#036320:0000000000000016
#037340:52
#037320:0026000000000000
#0383b0:130000000033230000000000000000000000000000000000
#038370:000033330000000000000000000000000000000000000000
#038360:000000000000000000000000130000000033230000000000
#038320:000000000000000000000000000033330000000000000000
#040320:130000000033230000000000000000000000000000000000
#040360:000033330000000000000000000000000000000000000000
#040370:000000000000000000000000130000000033230000000000
#0403b0:000000000000000000000000000033330000000000000000
#042320:130000000033230000000000000000000000000000000000
#042360:000033330000000000000000000000000000000000000000
#0423b0:000000000000000000000000130000000033230000000000
#042370:000000000000000000000000000033330000000000000000
#043370:000000000000130033330033230000000000000000000000
#043360:000000000000000000000000000000000000130033330033
#044360:23
#0443b0:0013
#044370:00000023
#044321:00000013
#045321:23
#045370:1200000000000000000000000000000000000000000000000000000000000052005200000000000000000000000000000000000000000000000000000000000000000000000000000000000000000000000000000000000000000000000000520052000000000000000000000000000000000000000000000000000000000000
#045360:00340034
#046370:0000000000000000000000000000000000000000000000000000000000000052005200000000000000000000000000000000000000000000000000000000000000000000000000000000000000000000000000000000000000000000000000520052000000000000000000000000000000000000000000000000000000000000
#046360:00340034
#047370:0000000000000000000000000000000000000000000000000000000000000052005200000000000000000000000000000000000000000000000000000000000000000000000000000000000000000000000000000000000000000000000000520052000000000000000000000000000000000000000000000000000000000000
#047360:00340034
#048370:0000000000000000000000000000000000000000000000000000000000000052005200000000000000000000000000000000000000000000000000000000000000000000000000000000000000000000000000000000000000000000000000520052000000000000000000000000000052000000000000000000000000000000
#048360:00340034
#049350:26
#049340:0012
#049360:000000000000000000000000000032000032220000000000
#0493a1:0012
#049381:000000000000000000000000000032000032220000000000
#049381:0000000000000012
#0503c1:0000002200000000
#050360:0000001200000000
#051320:22
#052340:12320000
#052320:0000000000560000
#053320:36565656565656565656565656565656260000000000000000000000000000000000000000000000000000000000000000000000000000000000000000000000
#053330:0056005600560056005600560056005600560056005600560056005600560056000000000000000000000000000000000000000000000000000000000000000000000000000000000000000000000000000000000000000000000000000000000000000000000000000000000000000000000000000000000000000000000000
#060380:000000000000000000000000000000000013000000000033
#0603b0:000000000000000000000000000000000000000033330000
#061380:23
#060321:000000000000000000000000000000000013000000000033
#060351:000000000000000000000000000000000000000033330000
#061321:23
#061381:0000000000132300
#062351:0000000000132300
#063321:000000000000000000130000000023000000000000000000
#063351:000000000000000000000033000000000000000000000000
#0633b0:000000000000000000000013000000000000000000000000
#063380:000000000000002300000000
#0643b0:0013
#064380:0000000000230000
#064351:0000000000130000
#064321:00000023
#067381:13
#0673b1:00530023
#068371:000013000023000000000000000000000000000000000000
#068321:00000013
#068361:0000000000000023
#0683b0:000000000000000000000000000000000000000000130023
#069370:0013000000000000
#0693b0:00230000
#070360:0013000000000000
#070320:00230000
#0723b0:0000001323000000
#072321:0000000013230000
#072380:0000000000132300
#072351:0000000000001323
#0723b0:000000000000000000000000000000000000000000130023
#073360:0013000000000000
#073320:00230000
#074370:0013000000000000
#0743b0:00230000
#0753b0:13
#075370:0023000000000000
#075370:0000001300000000
#0753b0:0023
#075321:0013
#075361:0000000000230000
#075361:0000000000000013
#076321:23
#076361:0013
#076321:00000023
#076360:00000014
#076390:000000000000000000000000000000000000003434343434
#0773a0:24
#077321:18
#078321:0023
#004970:000000000000000000000000000000000000000000000000000000000000000000000000000000000000000000000000000000000000000000000000000000000000000000000000000000000000000000000000000000000000000000000000000000000000000000000000000000000000000000000000000000000000000000000000000000000000000000000000000000000000000000000000000000000000000000000000000000000000000000000000000000000000000000000000000000000000000000000000000000000000000000000000000000000000000000000000000000000000000000000000000000000000000000000000000000000000000000000000000000000000000000000000000000000000000000000000000000000000000000000000000000000000000000000000000000000000000000000000000000000000000000000000000000000000000000000000000000000000000000000000000000000000000000000000000000000000000000000000000000000000000000000000000000000000000000000000000000000000000000000000000000000000000000000000000000000000000000000000000000000000000000000000000000000000000000000000000000000000000000000000000000000000000000000000000000000000000000000000000000000000000000000000000000000000000000000000000000000000000000000000000000000000000000000000000000000000000000000000000000000000000000000000000000000000000000000000000000000000000000000000000000000000000000000000000000000000000000000000000000000000000000000000000000000000000000000000000000000000000000000000000000000000000000000000000000000000000000000000000000000000000000000000000000000000000000000000000000000000000000000000000000000000000000000000000000000000000000000000000000000000000000000000000000000000000000000000000000000000000000000000000000000000000000000000000000000000000000000000000000000000000000000000000000000000000000000000000000000000000000000000000000000000000000000000000000000000000000000000000000000000000000000000000000000000000000000000000000000000000000000000000000000000000000000000000000000000000000000000000000000000000000000000000000000000000000000000000000000000000000000000000000000000000000000000000000000000000000000000000000000000000000000000000000000000000000000000000000000000000000000000000000000000000000000000000000000000000000000000000000000000000000000000000000000000000000000000000000000000000000000000000000000000000000000000000000000000000000000000000000000000000000000000000000000000000000000000000000000000000000000000000000000000000000000000000000000000000000000000000000000000000000000000000000000000000000000000000000000000000000000000000000000000000000000000000000000000000000000000000000000000000000000000000000000000000000000000000000000000000000000000000000000000000000000000000000000000000000000000000000000000000000000000000000000000000000000000000000000000000000000000000000000000000000000000000000000000000000000000000000000000000000000000000000000000000000000000000000000000000000000000000000000000000000000000000000000000000000000000000000000000000000000000000000000000000000000000000000000000000000000000001200000000000000000000000000000000000000000000000000000000000000000000000000000000000000000000000000000000000000000000000000000000000000000000000000000000000000000000000000000000000000000000000000000000000000000000000000000000000000000000000000000000000000000000000000000000000000000000000000000000000000000000000000000000000000000000000000000000000000000000000000000000000000000000000000000000000000000000000000000000000000000000000000000000000000000000000000000000000000000000000000000000000000000000000000000000000000000000000000000000000000000000000000000000000000000000000000000000000000000000000000000000000000000000000000000000000000000000000000000000000000000000000000000000000000000000000000000000000000000000000000000000000000000000000000000000000000000000000000000000000000000000000000000000000000000000000000000000000000000000000000000000000000000000000000000000000000000000000000000000000000000000000000000000000000000000000000000000000000000000
#0049a0:0000000000000022
#0379b0:0013000000000000
#037980:0000535323000000
#039920:0013000000000000
#039950:0000535323000000
#041960:0013000000000000
#041920:0000535323000000
#0449b0:13
#044980:0023000000000000
#044920:00130000
#044950:0000002300000000
#0529c0:00000012
#052980:000000000000000000000056
#053980:26
#060970:13
#0609b0:00230000000000000000000000000000
#065980:0013
#0659b0:000000000000002300000000
#065921:0013
#065951:000000000000002300000000
#066951:0013
#066921:000000000000002300000000
#0669b0:0013
#066980:000000000000002300000000
#069920:000000000000000000000000000000000000000000000000000000000000000000000000000000000000000000000000000000000000000000000000000000000000000000000000000000000000000000000000000000000000000000000000000000000000000000000000000000000000000000000000000000000000000000000000000000000000000000000000000000000000000000000000000000000000000000000000000000000000000000000000000000000000000000000000000000000000000000000000000000000000000000000000000000000000000000000000000000000000000000000000000000000000000000000000000000000000000000000000000000000000000000000000000000000000000000000000000000000000000000000000000000000000000000000000000000000000000000000000000000000000000000000000000000000000000000000000000000000000000000000000000000000000000000000000000000000000000000000000000000000000000000000000000000000000000000000000000000000000000000000000000000000000000000000000000000000000000000000000000000000000000000000000000000000000000000000000000000000000000000000000001300000000000000000000000000000000000000000000000000000000000000000000000000000000000000000000000000000000000000000000000000000000000000000000000000000000000000000000000000000000000000000000000000000000000000000000000000000000000000000000000000000000000000000000000000000000000000000000000000000000000000000000000000002300000000000000000000000000000000000000000000000000000000000000000000000000000000000000000000000000000000000000000000000000000000000000000000000000000000000000000000000000000000000000000000000000000000000000000000000000000000000000000000000000000000000000000000000000000000000000000000000000000000000000000000000000000000000000000000000000000000000000000000000000000000000000000000000000000000000000000000000000000000000000000000000000000000000000000000000000000000000000000000000000000000000000000000000000000000000000000000000000000000000000000000000000000000000000000000000000000000000000000000000000000000000000000000000000000000000000000000000000000000000000000000000000000000000000000000000000000000000000000000000000000000000000000000000000000000000000000000000000000000000000000000000000000000000000000000000000000000000000000000000000000000000000000000000000000000000000000000000000000000000000000000000000000000000000000000000000000000000000000000000000000000000000000000000000000000000000000000000000000000000000000000000000000000000000000000000000000000000000000000000000000000000000000000000000000000000000000000000000000000000000000000000000000000000000000000000000000000000000000000000000000000000000000000000000000000000000000000000000000000000000000000000000000000000000000000000000000000000000000000000000000000000000000000000000000000000000000000000000000000000000000000000000000000000000000000000000000000000000000000000000000000000000000000000000000000000000000000000000000000000000000000000000000000000000000000000000000000000000000000000000000000000000000000000000000000000000000000000000000000000000000000000000000000000000000000000000000000000000000000000000000000000000000000000000000000000000000000000000000000000000000000000000000000000000000000000000000000000000000000000000000000000000000000000000000000000000000000000000000000000000000000000000000000000000000000000000000000000000000000000000000000000000000000000000000000000000000000000000000000000000000000000000000000000000000000000000000000000000000000000000000000000000000000000000000000000000000000000000000000000000000000000000000000000000000000000000000000000000000000000000000000000000000000000000000000000000000000000000000000000000000000000000000000000000000000000000000000000000000000000000000000000000000000000000000000000000000000000000000000000000000000000000000000000000000000000000000000000000000000000000000000000000000000000000000000000000000000000000000000000000000000000000000000000000000000000000000000000000000000000000000000000000000000000000000000000000
#069980:000000000000000000130023000000000000000000000000
#069950:000000000000132300000000
#0699b0:000000000000000000000000000000130023000000000000
#069960:000000000000000000000000000000000000000000000000000000000000000000000000000000000000000000000000000000000000000000000000000000000000000000000000000000000000000000000000000000000000000000000000000000000000000000000000000000000000000000000000000000000000000000000000000000000000000000000000000000000000000000000000000000000000000000000000000000000000000000000000000000000000000000000000000000000000000000000000000000000000000000000000000000000000000000000000000000000000000000000000000000000000000000000000000000000000000000000000000000000000000000000000000000000000000000000000000000000000000000000000000000000000000000000000000000000000000000000000000000000000000000000000000000000000000000000000000000000000000000000000000000000000000000000000000000000000000000000000000000000000000000000000000000000000000000000000000000000000000000000000000000000000000000000000000000000000000000000000000000000000000000000000000000000000000000000000000000000000000000000000000000000000000000000000000000000000000000000000000000000000000000000000000000000000000000000000000000000000000000000000000000000000000000000000000000000000000000000000000000000000000000000000000000000000000000000000000000000000000000000000000000000000000000000000000000000000000000000000000000000000000000000000000000000000000000000000000000000000000000000000000000000000000000000000000000000000000000000000000000000000000000000000000000000000000000000000000000000000000000000000000000000000000000000000000000000000000000000000000000000000000000000000000000000000000000000000000000000000000000000000000000000000000000000000000000000000000000000000000000000000000000000000000000000000000000000000000000000000000000000000000000000000000000000000000000000000000000000000000000000000000000000000000000000000000000000000000000000000000000000000000000000000000000000000000000000000000000000000000000000000000000000000000000000000000000000000000000000000000000000000000000000000000000000000000000000000000000000000000000000000000000000000000000000000000000000000000000000000000000000000000000000000000000000000000000000000000000000000000000000000000000000000000000000000000000000000000000000000000000000000000000000000000000000000000000000000000000000000000000000000000000000000000000000000000000000000000000000000000000000000000000000000000000000000000000000000000000000000000000000000000000000000000000000000000000000000000000000000000000000000000000000000000000000000000000000000000000000000000000000000000000000000000000000000000000000000000000000000000000000000000000000000000000000000000000000000000000000000000000000000000000000000000000000000000000000000000000000000000000000000000000000000000000000000000000000000000000000000000000000000000000000000000000000000000000000000000000000000000000000000000000000000000000000000000000000000000000000000000000000000000000000000000000000000000000000000000000000000000000000000001300000000000000000000000000000000000000000000000000000000000000000000000000000000000000000000000000000000000000000000000000000000000000000000000000000000000000000000000000000000000000000000000000000000000000000000000000000000000000000000000000000000000000000000000000000000000000000000000000000000000000000000000000000000000000000000000000000000000000000000000000000000000000000000000000000000000000000000000000000000000000000000000000000000000000000000000000000000000000000000000000000000000000000000000000000000000000000000000000000000000000000000000000000000000000000000000000000000000000000000000000000000000000000000000000000000000000000000000000000000000000000000000000000000000000000000000000000000000000000000000000000000000000000000000000000000000000000000000000000000000000000000000000000000000000000000000000000000000000000000000000000000000000000000000000000000000000000000000000000000000000000000000000000000000000000000000000000000000000000000
#069920:000000000000000000005353
#070920:23
#0709b0:000000000000000000000000000000000000000000000000000000000000000000000000000000000000000000000000000000000000000000000000000000000000000000000000000000000000000000000000000000000000000000000000000000000000000000000000000000000000000000000000000000000000000000000000000000000000000000000000000000000000000000000000000000000000000000000000000000000000000000000000000000000000000000000000000000000000000000000000000000000000000000000000000000000000000000000000000000000000000000000000000000000000000000000000000000000000000000000000000000000000000000000000000000000000000000000000000000000000000000000000000000000000000000000000000000000000000000000000000000000000000000000000000000000000000000000000000000000000000000000000000000000000000000000000000000000000000000000000000000000000000000000000000000000000000000000000000000000000000000000000000000000000000000000000000000000000000000000000000000000000000000000000000000000000000000000000000000000000000000000000001300000000000000000000000000000000000000000000000000000000000000000000000000000000000000000000000000000000000000000000000000000000000000000000000000000000000000000000000000000000000000000000000000000000000000000000000000000000000000000000000000000000000000000000000000000000000000000000000000000000000000000000000000002300000000000000000000000000000000000000000000000000000000000000000000000000000000000000000000000000000000000000000000000000000000000000000000000000000000000000000000000000000000000000000000000000000000000000000000000000000000000000000000000000000000000000000000000000000000000000000000000000000000000000000000000000000000000000000000000000000000000000000000000000000000000000000000000000000000000000000000000000000000000000000000000000000000000000000000000000000000000000000000000000000000000000000000000000000000000000000000000000000000000000000000000000000000000000000000000000000000000000000000000000000000000000000000000000000000000000000000000000000000000000000000000000000000000000000000000000000000000000000000000000000000000000000000000000000000000000000000000000000000000000000000000000000000000000000000000000000000000000000000000000000000000000000000000000000000000000000000000000000000000000000000000000000000000000000000000000000000000000000000000000000000000000000000000000000000000000000000000000000000000000000000000000000000000000000000000000000000000000000000000000000000000000000000000000000000000000000000000000000000000000000000000000000000000000000000000000000000000000000000000000000000000000000000000000000000000000000000000000000000000000000000000000000000000000000000000000000000000000000000000000000000000000000000000000000000000000000000000000000000000000000000000000000000000000000000000000000000000000000000000000000000000000000000000000000000000000000000000000000000000000000000000000000000000000000000000000000000000000000000000000000000000000000000000000000000000000000000000000000000000000000000000000000000000000000000000000000000000000000000000000000000000000000000000000000000000000000000000000000000000000000000000000000000000000000000000000000000000000000000000000000000000000000000000000000000000000000000000000000000000000000000000000000000000000000000000000000000000000000000000000000000000000000000000000000000000000000000000000000000000000000000000000000000000000000000000000000000000000000000000000000000000000000000000000000000000000000000000000000000000000000000000000000000000000000000000000000000000000000000000000000000000000000000000000000000000000000000000000000000000000000000000000000000000000000000000000000000000000000000000000000000000000000000000000000000000000000000000000000000000000000000000000000000000000000000000000000000000000000000000000000000000000000000000000000000000000000000000000000000000000000000000000000000000000000000000000000000000000000000000000000000000000000000000000000000000000
#070950:000000000000000000130023000000000000000000000000
#070980:000000000000132300000000
#070920:000000000000000000000000000000130023000000000000
#070970:000000000000000000000000000000000000000000000000000000000000000000000000000000000000000000000000000000000000000000000000000000000000000000000000000000000000000000000000000000000000000000000000000000000000000000000000000000000000000000000000000000000000000000000000000000000000000000000000000000000000000000000000000000000000000000000000000000000000000000000000000000000000000000000000000000000000000000000000000000000000000000000000000000000000000000000000000000000000000000000000000000000000000000000000000000000000000000000000000000000000000000000000000000000000000000000000000000000000000000000000000000000000000000000000000000000000000000000000000000000000000000000000000000000000000000000000000000000000000000000000000000000000000000000000000000000000000000000000000000000000000000000000000000000000000000000000000000000000000000000000000000000000000000000000000000000000000000000000000000000000000000000000000000000000000000000000000000000000000000000000000000000000000000000000000000000000000000000000000000000000000000000000000000000000000000000000000000000000000000000000000000000000000000000000000000000000000000000000000000000000000000000000000000000000000000000000000000000000000000000000000000000000000000000000000000000000000000000000000000000000000000000000000000000000000000000000000000000000000000000000000000000000000000000000000000000000000000000000000000000000000000000000000000000000000000000000000000000000000000000000000000000000000000000000000000000000000000000000000000000000000000000000000000000000000000000000000000000000000000000000000000000000000000000000000000000000000000000000000000000000000000000000000000000000000000000000000000000000000000000000000000000000000000000000000000000000000000000000000000000000000000000000000000000000000000000000000000000000000000000000000000000000000000000000000000000000000000000000000000000000000000000000000000000000000000000000000000000000000000000000000000000000000000000000000000000000000000000000000000000000000000000000000000000000000000000000000000000000000000000000000000000000000000000000000000000000000000000000000000000000000000000000000000000000000000000000000000000000000000000000000000000000000000000000000000000000000000000000000000000000000000000000000000000000000000000000000000000000000000000000000000000000000000000000000000000000000000000000000000000000000000000000000000000000000000000000000000000000000000000000000000000000000000000000000000000000000000000000000000000000000000000000000000000000000000000000000000000000000000000000000000000000000000000000000000000000000000000000000000000000000000000000000000000000000000000000000000000000000000000000000000000000000000000000000000000000000000000000000000000000000000000000000000000000000000000000000000000000000000000000000000000000000000000000000000000000000000000000000000000000000000000000000000000000000000000000000000000000000000000000001300000000000000000000000000000000000000000000000000000000000000000000000000000000000000000000000000000000000000000000000000000000000000000000000000000000000000000000000000000000000000000000000000000000000000000000000000000000000000000000000000000000000000000000000000000000000000000000000000000000000000000000000000000000000000000000000000000000000000000000000000000000000000000000000000000000000000000000000000000000000000000000000000000000000000000000000000000000000000000000000000000000000000000000000000000000000000000000000000000000000000000000000000000000000000000000000000000000000000000000000000000000000000000000000000000000000000000000000000000000000000000000000000000000000000000000000000000000000000000000000000000000000000000000000000000000000000000000000000000000000000000000000000000000000000000000000000000000000000000000000000000000000000000000000000000000000000000000000000000000000000000000000000000000000000000000000000000000000000000000
#0709b0:000000000000000000005353
#0719b0:23
#071921:13
#071951:002300000000000000000000
#071981:0013000000000000
#0719b1:000000000023000000000000000000000000000000000000
#071951:000000000000000000000000000000000000000000000000000000000000000000000000000000000000000000000000000000000000000000000000000000000000000000000000000000000000000000000000000000000000000000000000000000000000000000000000000000000000000000000000000000000000000000000000000000000000000000000000000000000000000000000000000000000000000000000000000000000000000000000000000000000000000000000000000000000000000000000000000000000000000000000000000000000000000000000000000000000000000000000000000000000000000000000000000000000000000000000000000000000000000000000000000000000000000000000000000000000000000000000000000000000000000000000000000000000000000000000000000000000000000000000000000000000000000000000000000000000000000000000000000000000000000000000000000000000000000000000000000000000000000000000000000000000000000000000000000000000000000000000000000000000000000000000000000000000000000000000000000000000000000000000000000000000000000000000000000000000000000000000000001300000000000000000000000000000000000000000000000000000000000000000000000000000000000000000000000000000000000000000000000000000000000000000000000000000000000000000000000000000000000000000000000000000000000000000000000000000000000000000000000000000000000000000000000000000000000000000000000000000000000000000000000000000000000000000000000000000000000000000000000000000000000000000000000000000000000000000000000000000000000000000000000000000000000000000000000000000000000000000000000000000000000000000000000000000000000000000000000000000000000000000000000000000000000000000000000000000000000000000000000000000000000000000000000000000000000000000000000000000000000000000000000000000000000000000000000000000000000000000000000000000000000000000000000000000000000000000000000000000000000000000000000000000000000000000000000000000000000000000000000000000000000000000000000000000000000000000000000000000000000000000000000000000000000000000000000000000000000000000000000000000000000000000000000000000000000000000000000000000000000000000000000000000000000000000000000000000000000000000000000000000000000000000000000000000000000000000000000000000000000000000000000000000000000000000000000000000000000000000000000000000000000000000000000000000000000000000000000000000000000000000000000000000000000000000000000000000000000000000000000000000000000000000000000000000000000000000000000000000000000000000000000000000000000000000000000000000000000000000000000000000000000000000000000000000000000000000000000000000000000000000000000000000000000000000000000000000000000000000000000000000000000000000000000000000000000000000000000000000000000000000000000000000000000000000000000000000000000000000000000000000000000000000000000000000000000000000000000000000000000000000000000000000000000000000000000000000000000000000000000000000000000000000000000000000000000000000000000000000000000000000000000000000000000000000000000000000000000000000000000000000000000000000000000000000000000000000000000000000000000000000000000000000000000000000000000000000000000000000000000000000000000000000000000000000000000000000000000000000000000000000000000000000000000000000000000000000000000000000000000000000000000000000000000000000000000000000000000000000000000000000000000000000000000000000000000000000000000000000000000000000000000000000000000000000000000000000000000000000000000000000000000000000000000000000000000000000000000000000000000000000000000000000000000000000000000000000000000000000000000000000000000000000000000000000000000000000000000000000000000000000000000000000000000000000000000000000000000000000000000000000000000000000000000000000000000000000000000000000000000000000000000000000000000000000000000000000000000000000000000000000000000000000000000000000000000000000000000000000000000000000000000000000000000000000000000000000000000000000000000000000000000000000000000000000000000000000000000000000000
#071921:000000000000000000530023000000000000000000000000
#0719b1:0013
#071981:000000000000002300000000
#071951:0000000000130000
#071921:000000000000000000000000000000000023000000000000
#071981:000000000000000000000000000000000000000000000000000000000000000000000000000000000000000000000000000000000000000000000000000000000000000000000000000000000000000000000000000000000000000000000000000000000000000000000000000000000000000000000000000000000000000000000000000000000000000000000000000000000000000000000000000000000000000000000000000000000000000000000000000000000000000000000000000000000000000000000000000000000000000000000000000000000000000000000000000000000000000000000000000000000000000000000000000000000000000000000000000000000000000000000000000000000000000000000000000000000000000000000000000000000000000000000000000000000000000000000000000000000000000000000000000000000000000000000000000000000000000000000000000000000000000000000000000000000000000000000000000000000000000000000000000000000000000000000000000000000000000000000000000000000000000000000000000000000000000000000000000000000000000000000000000000000000000000000000000000000000000000000000000000000000000000000000000000000000000000000000000000000000000000000000000000000000000000000000000000000000000000000000000000000000000000000000000000000000000000000000000000000000000000000000000000000000000000000000000000000000000000000000000000000000000000000000000000000000000000000000000000000000000000000000000000000000000000000000000000000000000000000000000000000000000000000000000000000000000000000000000000000000000000000000000000000000000000000000000000000000000000000000000000000000000000000000000000000000000000000000000000000000000000000000000000000000000000000000000000000000000000000000000000000000000000000000000000000000000000000000000000000000000000000000000000000000000000000000000000000000000000000000000000000000000000000000000000000000000000000000000000000000000000000000000000000000000000000000000000000000000000000000000000000000000000000000000000000000000000000000000000000000000000000000000000000000000000000000000000000000000000000000000000000000000000000000000000000000000000000000000000000000000000000000000000000000000000000000000000000000000000000000000000000000000000000000000000000000000000000000000000000000000000000000000000000000000000000000000000000000000000000000000000000000000000000000000000000000000000000000000000000000000000000000000000000000000000000000000000000000000000000000000000000000000000000000000000000000000000000000000000000000000000000000000000000000000000000000000000000000000000000000000000000000000000000000000000000000000000000000000000000000000000000000000000000000000000000000000000000000000000000000000000000000000000000000000000000000000000000000000000000000000000000000000000000000000000000000000000000000000000000000000000000000000000000000000000000000000000000000000000000000000000000000000000000000000000000000000000000000000000000000000000000000000000000000000000000000000000000000000000000000000000000000000000000000000000000000000000000000000000000000001300000000000000000000000000000000000000000000000000000000000000000000000000000000000000000000000000000000000000000000000000000000000000000000000000000000000000000000000000000000000000000000000000000000000000000000000000000000000000000000000000000000000000000000000000000000000000000000000000000000000000000000000000000000000000000000000000000000000000000000000000000000000000000000000000000000000000000000000000000000000000000000000000000000000000000000000000000000000000000000000000000000000000000000000000000000000000000000000000000000000000000000000000000000000000000000000000000000000000000000000000000000000000000000000000000000000000000000000000000000000000000000000000000000000000000000000000000000000000000000000000000000000000000000000000000000000000000000000000000000000000000000000000000000000000000000000000000000000000000000000000000000000000000000000000000000000000000000000000000000000000000000000000000000000000000000000000000000000000000000
#0719b1:000000000000000000000000000000000000000000530023
#072921:13
#072951:002300000000000000000000
#072981:0013000000000000
#0729b1:000000000023000000000000000000000000000000000000
#072921:000000000000000000000000000000000000000000000000000000000000000000000000000000000000000000000000000000000000000000000000000000000000000000000000000000000000000000000000000000000000000000000000000000000000000000000000000000000000000000000000000000000000000000000000000000000000000000000000000000000000000000000000000000000000000000000000000000000000000000000000000000000000000000000000000000000000000000000000000000000000000000000000000000000000000000000000000000000000000000000000000000000000000000000000000000000000000000000000000000000000000000000000000000000000000000000000000000000000000000000000000000000000000000000000000000000000000000000000000000000000000000000000000000000000000000000000000000000000000000000000000000000000000000000000000000000000000000000000000000000000000000000000000000000000000000000000000000000000000000000000000000000000000000000000000000000000000000000000000000000000000000000000000000000000000000000000000000000000000000000000001300000000000000000000000000000000000000000000000000000000000000000000000000000000000000000000000000000000000000000000000000000000000000000000000000000000000000000000000000000000000000000000000000000000000000000000000000000000000000000000000000000000000000000000000000000000000000000000000000000000000000000000000000000000000000000000000000000000000000000000000000000000000000000000000000000000000000000000000000000000000000000000000000000000000000000000000000000000000000000000000000000000000000000000000000000000000000000000000000000000000000000000000000000000000000000000000000000000000000000000000000000000000000000000000000000000000000000000000000000000000000000000000000000000000000000000000000000000000000000000000000000000000000000000000000000000000000000000000000000000000000000000000000000000000000000000000000000000000000000000000000000000000000000000000000000000000000000000000000000000000000000000000000000000000000000000000000000000000000000000000000000000000000000000000000000000000000000000000000000000000000000000000000000000000000000000000000000000000000000000000000000000000000000000000000000000000000000000000000000000000000000000000000000000000000000000000000000000000000000000000000000000000000000000000000000000000000000000000000000000000000000000000000000000000000000000000000000000000000000000000000000000000000000000000000000000000000000000000000000000000000000000000000000000000000000000000000000000000000000000000000000000000000000000000000000000000000000000000000000000000000000000000000000000000000000000000000000000000000000000000000000000000000000000000000000000000000000000000000000000000000000000000000000000000000000000000000000000000000000000000000000000000000000000000000000000000000000000000000000000000000000000000000000000000000000000000000000000000000000000000000000000000000000000000000000000000000000000000000000000000000000000000000000000000000000000000000000000000000000000000000000000000000000000000000000000000000000000000000000000000000000000000000000000000000000000000000000000000000000000000000000000000000000000000000000000000000000000000000000000000000000000000000000000000000000000000000000000000000000000000000000000000000000000000000000000000000000000000000000000000000000000000000000000000000000000000000000000000000000000000000000000000000000000000000000000000000000000000000000000000000000000000000000000000000000000000000000000000000000000000000000000000000000000000000000000000000000000000000000000000000000000000000000000000000000000000000000000000000000000000000000000000000000000000000000000000000000000000000000000000000000000000000000000000000000000000000000000000000000000000000000000000000000000000000000000000000000000000000000000000000000000000000000000000000000000000000000000000000000000000000000000000000000000000000000000000000000000000000000000000000000000000000000000000000000000000000000000000000000000
#072951:0000002300000000
#073981:000000000000000000000000000000000000000000000000000000000000000000000000000000000000000000000000000000000000000000000000000000000000000000000000000000000000000000000000000000000000000000000000000000000000000000000000000000000000000000000000000000000000000000000000000000000000000000000000000000000000000000000000000000000000000000000000000000000000000000000000000000000000000000000000000000000000000000000000000000000000000000000000000000000000000000000000000000000000000000000000000000000000000000000000000000000000000000000000000000000000000000000000000000000000000000000000000000000000000000000000000000000000000000000000000000000000000000000000000000000000000000000000000000000000000000000000000000000000000000000000000000000000000000000000000000000000000000000000000000000000000000000000000000000000000000000000000000000000000000000000000000000000000000000000000000000000000000000000000000000000000000000000000000000000000000000000000000000000000000000000001300000000000000000000000000000000000000000000000000000000000000000000000000000000000000000000000000000000000000000000000000000000000000000000000000000000000000000000000000000000000000000000000000000000000000000000000000000000000000000000000000000000000000000000000000000000000000000000000000000000000000000000000000000000000000000000000000000000000000000000000000000000000000000000000000000000000000000000000000000000000000000000000000000000000000000000000000000000000000000000000000000000000000000000000000000000000000000000000000000000000000000000000000000000000000000000000000000000000000000000000000000000000000000000000000000000000000000000000000000000000000000000000000000000000000000000000000000000000000000000000000000000000000000000000000000000000000000000000000000000000000000000000000000000000000000000000000000000000000000000000000000000000000000000000000000000000000000000000000000000000000000000000000000000000000000000000000000000000000000000000000000000000000000000000000000000000000000000000000000000000000000000000000000000000000000000000000000000000000000000000000000000000000000000000000000000000000000000000000000000000000000000000000000000000000000000000000000000000000000000000000000000000000000000000000000000000000000000000000000000000000000000000000000000000000000000000000000000000000000000000000000000000000000000000000000000000000000000000000000000000000000000000000000000000000000000000000000000000000000000000000000000000000000000000000000000000000000000000000000000000000000000000000000000000000000000000000000000000000000000000000000000000000000000000000000000000000000000000000000000000000000000000000000000000000000000000000000000000000000000000000000000000000000000000000000000000000000000000000000000000000000000000000000000000000000000000000000000000000000000000000000000000000000000000000000000000000000000000000000000000000000000000000000000000000000000000000000000000000000000000000000000000000000000000000000000000000000000000000000000000000000000000000000000000000000000000000000000000000000000000000000000000000000000000000000000000000000000000000000000000000000000000000000000000000000000000000000000000000000000000000000000000000000000000000000000000000000000000000000000000000000000000000000000000000000000000000000000000000000000000000000000000000000000000000000000000000000000000000000000000000000000000000000000000000000000000000000000000000000000000000000000000000000000000000000000000000000000000000000000000000000000000000000000000000000000000000000000000000000000000000000000000000000000000000000000000000000000000000000000000000000000000000000000000000000000000000000000000000000000000000000000000000000000000000000000000000000000000000000000000000000000000000000000000000000000000000000000000000000000000000000000000000000000000000000000000000000000000000000000000000000000000000000000000000000000000000000000000000000000
#0739b1:002300
#073921:0000001300000000
#073951:000000000000000000000023000000000000000000000000
#0739b1:0013
#073981:000000000000002300000000
#073951:0000000000130000
#073921:000000000000000000000000000000000023000000000000
#073971:000000000000000000000000000000000000000000000000000000000000000000000000000000000000000000000000000000000000000000000000000000000000000000000000000000000000000000000000000000000000000000000000000000000000000000000000000000000000000000000000000000000000000000000000000000000000000000000000000000000000000000000000000000000000000000000000000000000000000000000000000000000000000000000000000000000000000000000000000000000000000000000000000000000000000000000000000000000000000000000000000000000000000000000000000000000000000000000000000000000000000000000000000000000000000000000000000000000000000000000000000000000000000000000000000000000000000000000000000000000000000000000000000000000000000000000000000000000000000000000000000000000000000000000000000000000000000000000000000000000000000000000000000000000000000000000000000000000000000000000000000000000000000000000000000000000000000000000000000000000000000000000000000000000000000000000000000000000000000000000000000000000000000000000000000000000000000000000000000000000000000000000000000000000000000000000000000000000000000000000000000000000000000000000000000000000000000000000000000000000000000000000000000000000000000000000000000000000000000000000000000000000000000000000000000000000000000000000000000000000000000000000000000000000000000000000000000000000000000000000000000000000000000000000000000000000000000000000000000000000000000000000000000000000000000000000000000000000000000000000000000000000000000000000000000000000000000000000000000000000000000000000000000000000000000000000000000000000000000000000000000000000000000000000000000000000000000000000000000000000000000000000000000000000000000000000000000000000000000000000000000000000000000000000000000000000000000000000000000000000000000000000000000000000000000000000000000000000000000000000000000000000000000000000000000000000000000000000000000000000000000000000000000000000000000000000000000000000000000000000000000000000000000000000000000000000000000000000000000000000000000000000000000000000000000000000000000000000000000000000000000000000000000000000000000000000000000000000000000000000000000000000000000000000000000000000000000000000000000000000000000000000000000000000000000000000000000000000000000000000000000000000000000000000000000000000000000000000000000000000000000000000000000000000000000000000000000000000000000000000000000000000000000000000000000000000000000000000000000000000000000000000000000000000000000000000000000000000000000000000000000000000000000000000000000000000000000000000000000000000000000000000000000000000000000000000000000000000000000000000000000000000000000000000000000000000000000000000000000000000000000000000000000000000000000000000000000000000000000000000000000000000000000000000000000000000000000000000000000000000000000000000000000000000000000000000000000000000000000000000000000000000000000000000000000000000000000000000000000000000000001300000000000000000000000000000000000000000000000000000000000000000000000000000000000000000000000000000000000000000000000000000000000000000000000000000000000000000000000000000000000000000000000000000000000000000000000000000000000000000000000000000000000000000000000000000000000000000000000000000000000000000000000000000000000000000000000000000000000000000000000000000000000000000000000000000000000000000000000000000000000000000000000000000000000000000000000000000000000000000000000000000000000000000000000000000000000000000000000000000000000000000000000000000000000000000000000000000000000000000000000000000000000000000000000000000000000000000000000000000000000000000000000000000000000000000000000000000000000000000000000000000000000000000000000000000000000000000000000000000000000000000000000000000000000000000000000000000000000000000000000000000000000000000000000000000000000000000000000000000000000000000000000000000000000000000000000000000000000000000000
#0739b1:000000000000000000005353
#0749b1:23
#074951:000000000000000000000000000000000000000000000000000000000000000000000000000000000000000000000000000000000000000000000000000000000000000000000000000000000000000000000000000000000000000000000000000000000000000000000000000000000000000000000000000000000000000000000000000000000000000000000000000000000000000000000000000000000000000000000000000000000000000000000000000000000000000000000000000000000000000000000000000000000000000000000000000000000000000000000000000000000000000000000000000000000000000000000000000000000000000000000000000000000000000000000000000000000000000000000000000000000000000000000000000000000000000000000000000000000000000000000000000000000000000000000000000000000000000000000000000000000000000000000000000000000000000000000000000000000000000000000000000000000000000000000000000000000000000000000000000000000000000000000000000000000000000000000000000000000000000000000000000000000000000000000000000000000000000000000000000000000000000000000000001300000000000000000000000000000000000000000000000000000000000000000000000000000000000000000000000000000000000000000000000000000000000000000000000000000000000000000000000000000000000000000000000000000000000000000000000000000000000000000000000000000000000000000000000000000000000000000000000000000000000000000000000000000000000000000000000000000000000000000000000000000000000000000000000000000000000000000000000000000000000000000000000000000000000000000000000000000000000000000000000000000000000000000000000000000000000000000000000000000000000000000000000000000000000000000000000000000000000000000000000000000000000000000000000000000000000000000000000000000000000000000000000000000000000000000000000000000000000000000000000000000000000000000000000000000000000000000000000000000000000000000000000000000000000000000000000000000000000000000000000000000000000000000000000000000000000000000000000000000000000000000000000000000000000000000000000000000000000000000000000000000000000000000000000000000000000000000000000000000000000000000000000000000000000000000000000000000000000000000000000000000000000000000000000000000000000000000000000000000000000000000000000000000000000000000000000000000000000000000000000000000000000000000000000000000000000000000000000000000000000000000000000000000000000000000000000000000000000000000000000000000000000000000000000000000000000000000000000000000000000000000000000000000000000000000000000000000000000000000000000000000000000000000000000000000000000000000000000000000000000000000000000000000000000000000000000000000000000000000000000000000000000000000000000000000000000000000000000000000000000000000000000000000000000000000000000000000000000000000000000000000000000000000000000000000000000000000000000000000000000000000000000000000000000000000000000000000000000000000000000000000000000000000000000000000000000000000000000000000000000000000000000000000000000000000000000000000000000000000000000000000000000000000000000000000000000000000000000000000000000000000000000000000000000000000000000000000000000000000000000000000000000000000000000000000000000000000000000000000000000000000000000000000000000000000000000000000000000000000000000000000000000000000000000000000000000000000000000000000000000000000000000000000000000000000000000000000000000000000000000000000000000000000000000000000000000000000000000000000000000000000000000000000000000000000000000000000000000000000000000000000000000000000000000000000000000000000000000000000000000000000000000000000000000000000000000000000000000000000000000000000000000000000000000000000000000000000000000000000000000000000000000000000000000000000000000000000000000000000000000000000000000000000000000000000000000000000000000000000000000000000000000000000000000000000000000000000000000000000000000000000000000000000000000000000000000000000000000000000000000000000000000000000000000000000000000000000000000000000000
#074921:002300
#0749b1:0000001300000000
#074981:000000000000000000000023000000000000000000000000
#074921:0013
#074951:000000000000002300000000
#074981:0000000000130000
#0749b1:000000000000000000000000000000000023000000000000
#074961:000000000000000000000000000000000000000000000000000000000000000000000000000000000000000000000000000000000000000000000000000000000000000000000000000000000000000000000000000000000000000000000000000000000000000000000000000000000000000000000000000000000000000000000000000000000000000000000000000000000000000000000000000000000000000000000000000000000000000000000000000000000000000000000000000000000000000000000000000000000000000000000000000000000000000000000000000000000000000000000000000000000000000000000000000000000000000000000000000000000000000000000000000000000000000000000000000000000000000000000000000000000000000000000000000000000000000000000000000000000000000000000000000000000000000000000000000000000000000000000000000000000000000000000000000000000000000000000000000000000000000000000000000000000000000000000000000000000000000000000000000000000000000000000000000000000000000000000000000000000000000000000000000000000000000000000000000000000000000000000000000000000000000000000000000000000000000000000000000000000000000000000000000000000000000000000000000000000000000000000000000000000000000000000000000000000000000000000000000000000000000000000000000000000000000000000000000000000000000000000000000000000000000000000000000000000000000000000000000000000000000000000000000000000000000000000000000000000000000000000000000000000000000000000000000000000000000000000000000000000000000000000000000000000000000000000000000000000000000000000000000000000000000000000000000000000000000000000000000000000000000000000000000000000000000000000000000000000000000000000000000000000000000000000000000000000000000000000000000000000000000000000000000000000000000000000000000000000000000000000000000000000000000000000000000000000000000000000000000000000000000000000000000000000000000000000000000000000000000000000000000000000000000000000000000000000000000000000000000000000000000000000000000000000000000000000000000000000000000000000000000000000000000000000000000000000000000000000000000000000000000000000000000000000000000000000000000000000000000000000000000000000000000000000000000000000000000000000000000000000000000000000000000000000000000000000000000000000000000000000000000000000000000000000000000000000000000000000000000000000000000000000000000000000000000000000000000000000000000000000000000000000000000000000000000000000000000000000000000000000000000000000000000000000000000000000000000000000000000000000000000000000000000000000000000000000000000000000000000000000000000000000000000000000000000000000000000000000000000000000000000000000000000000000000000000000000000000000000000000000000000000000000000000000000000000000000000000000000000000000000000000000000000000000000000000000000000000000000000000000000000000000000000000000000000000000000000000000000000000000000000000000000000000000000000000000000000000000000000000000000000000000000000000000000000000000000000000000000000000000000001300000000000000000000000000000000000000000000000000000000000000000000000000000000000000000000000000000000000000000000000000000000000000000000000000000000000000000000000000000000000000000000000000000000000000000000000000000000000000000000000000000000000000000000000000000000000000000000000000000000000000000000000000000000000000000000000000000000000000000000000000000000000000000000000000000000000000000000000000000000000000000000000000000000000000000000000000000000000000000000000000000000000000000000000000000000000000000000000000000000000000000000000000000000000000000000000000000000000000000000000000000000000000000000000000000000000000000000000000000000000000000000000000000000000000000000000000000000000000000000000000000000000000000000000000000000000000000000000000000000000000000000000000000000000000000000000000000000000000000000000000000000000000000000000000000000000000000000000000000000000000000000000000000000000000000000000000000000000000000000
#074921:000000000000000000005353
#075921:23
#0769b1:1300005323000000
#076981:000000535300530000000000000000000000000000000000
