This file was generated by Ched 2.7.0.0.
#TITLE ""
#ARTIST ""
#DESIGNER ""
#DIFFICULTY 0
#PLAYLEVEL
#SONGID ""
#WAVE ""
#WAVEOFFSET 0
#JACKET ""
#REQUEST "ticks_per_beat 480"
#00002: 4
#BPM01: 200
#00008: 01
#TIL00: ""
#VOLUME: ""
#HISPEED 00
#MEASUREHS 00
#06512:24140014
#06518:0000001313130013
#06515:00000000000000130013000000000000
#0651a:24000014
#06517:0014000000000000
#0651f:21
#0661a:14140014
#06615:0014001313130000
#06618:00000000000000130013000000000000
#06612:14000014
#06610:41
#0671a:0000141400000000
#06712:1400000000141400
#06715:0000000000000014
#0681a:14
#06818:00001300130000130000130000000000
#06815:00000013000013000000001300001300
#06812:0023
#0681b:00000023
#0691a:24140014
#06915:0014001313130013
#06918:00000000000000130013000000000000
#06912:24000014
#07012:14140014
#07018:0000001313130000
#07015:00000000000000130013000000000000
#0701a:14000014
#07017:0014000000000000
#07016:0000000000000014
#07117:14
#07112:0000131300530014
#07115:00000013
#07114:00000000000000530053000000000000
#07116:0053
#07218:0013001300130013
#07215:00000013001300000013000000130000
#07212:00000000000000130000001300000013
#0721b:00232323
#07312:00140014
#0731b:0000001300130000
#07315:00001300000000130013000000001400
#07318:00000013000000001300000000000000
#0731a:24000014
#0741a:14140014
#07412:1400001300131400
#07418:00001300000000130013000000000000
#07415:00000013000000001300000000000000
#07512:0000141400000000
#0751a:1400000000141400
#07517:0000000000000014
#07612:14240024
#07615:00001300000000130000130000000013
#07618:00000013000013000000001300001300
#0761a:0024
#08118:26261300
#08112:0016260013000000
#0811b:0000000000131313
#08115:00000000000000000000001300130000
#08110:00410000
#08212:1300001313130013
#08218:13000000000000130013000000000000
#08215:00130013
#0821b:0013130000001300
#08316:00130000000000000000000000130000
#0831a:0013000000000013
#08315:00000013000000000000000000000013
#08319:00130000
#08317:00000000000000130000000000000000
#08313:0013
#08318:00000000000000000013000000000000
#08314:0000000000130000
#0831b:23000023
#08312:0000002300000000
#08419:13
#08415:00001300000000002300000000130000
#08418:00000013000000000013000023000000
#08412:0000130000130000
#0841b:0000001300000013
#08515:0013130013130000
#08518:00000013000000000013000000000000
#0851a:2400001400001400
#08512:2400001400001400
#08618:0013130013130000
#08615:00000013000000000013000000000000
#08612:1400001400001400
#0861a:1400001400000000
#08715:14
#0871b:0000131300530000
#08718:00000013
#0871a:0000000000000014
#08719:00000000000000530053000000000000
#08717:0053
#08815:0013000000000000
#08818:00000013001400000014000000140000
#08814:0000001400140014
#0881a:00000000000000140000001400000014
#08812:00242424
#09117:00130000000000000000130000130000
#09114:00001300000000000013000000001300
#09119:00000013000000001300000000000013
#09116:00000000130000130000000000000000
#09112:23000023
#0911b:0000002300000000
#0921b:0013130000131300
#09216:13000013000000000000001300000000
#09212:0000001313000013
#09217:00000000000000130000000000000013
#08918:0013130000000000
#08915:00000013000000000000000000000000
#08912:2400001300001400
#08917:00000000000000130000000000000000
#08914:0013
#08919:00000000000000000013000000000000
#08916:0000000000130000
#0891b:00000000000000000000001300000000
#09015:0013130000000000
#09018:00000013000000000000000000000000
#0901b:0000001300000000
#09016:00000000000000130000000000000000
#09019:0013
#09014:00000000000000000013000000000000
#09017:0000000000130000
#09012:14000000000000000000001300000000
#0901a:24000014
#07712:0013130013130000
#07718:00000013000000000013000000000000
#07715:0000001400001400
#0771a:2400002400002400
#07817:1400001400001400
#0781b:0013130013130000
#07815:00000013000000000013000000000000
#07812:2400002400002400
#07915:00130013000000000013000000001300
#0791b:2313000023000000
#07918:00000000130013000000130000130000
#07912:00000000001300130000000023000000
#0931b:0013000000000000
#09316:00000013000000000000000000000000
#0931a:0000130000000014
#09315:00000000001300000000000000000000
#09319:0000001300000000
#09312:2413
#09317:00000000000000000013000000000000
#09313:0000000000130000
#09318:00000000000000000000001300000000
#09314:00000013
#09412:0013000000000014
#09417:00000013000000000000000000000000
#09413:00130000
#09418:00000000001300000000000000000000
#09414:0000001300000000
#0941b:0013
#09416:00000000000000000013000000000000
#0941a:2400000000130000
#09415:00000000000000000000001300000000
#09419:00000013
#09518:00000000005400540000140000000000
#09514:00540054000000000000000014000000
#0951a:0000240054000014
#09512:24542400
#09516:0054005400000000
#09612:14000000001300000013000000001600
#09618:0013001300131600
#09615:00000013000000130000001300000000
#0961b:00131300
#09715:00130013000000001300130000000000
#09718:26001300130000130013000026000000
#09714:00000000000000000000000000130013
#09717:0000000000000013
#09712:0000002600000000
#09710:41
#09817:1300000000130000
#09819:00000013001300000000000013000000
#09816:00000000130013000000000000130000
#09812:00002600000000000013000000000000
#09814:00000000000000000000001300000000
#0981b:0000000000000013
#09818:0026
#0991b:0013000000530013
#09917:00531300
#09912:2600002600002600
#09919:00000053000000000053000000000053
#10017:53130000
#10018:00000000000000000013000026000000
#10012:0026000026130000
#10015:00000000000000000000000000130000
#1001b:0000005300000013
#10019:00000000005300000000000000000000
#10118:00130013000026001300130000000000
#10115:00001300130000130013000000000000
#10119:00000000000000000000000000130013
#10116:0000000000000013
#10112:26000026
#10216:1300000000130000
#10214:00000013001300000000000013000000
#10217:00000000130013000000000000130000
#1021b:00000000000000000013000000000000
#10219:00000000000000000000001300000000
#10212:0000000026000013
#10218:0026000000000000
#10312:0013000000530013
#10316:00531300
#10318:2600002600002600
#10314:00000053000000000053000000000053
#10416:53130000
#10412:00000000000053000013000000130000
#10418:0026000026130013
#10415:00000000000000000000001300000013
#1041b:00000013
#10414:00000000005300000000000000000000
#1051b:12
#10516:0000001200005200
#10515:00000000000000520000005200000000
#10514:0000000052520000
#10513:00000000000000000052000000000000
#10716:00001200000000120000120000000000
#10718:00000012000012000000001200000000
#10712:00000013
#1071a:1212
#10714:0000120000000053
#10713:00000000000000000000000000530000
#10715:00000000000000000000000000000053
#1081b:1313000000000000
#10812:0000000013130000
#10817:0000005313000000
#10816:5300000000000053
#10815:00000000000000000000000000530000
#10814:00000053
#10813:00000000000000000000005300000000
#10818:00000000005300000000000000000000
#10819:00530000
#1081a:00000053000000000000000000000000
#10613:12
#10618:0000001200005200
#10619:00000000000000520000005200000000
#1061a:0000000052520000
#1061b:00000000000000000052000000000000
#1091b:1300001200000000
#10916:13001200000000120000000000001200
#10919:00000012000000000000120000000000
#10914:00000000120000000000001200000000
#1091a:0012
#10915:00000000000000000012000000000000
#10918:00000000000000000000000012000012
#11014:1200001200000000
#11018:00001200120000000012000000000052
#11016:00000012000000000000000000000000
#11019:0000000000520052
#1101a:00000000000000000000005200520000
#1101b:00000052
#11113:1252
#1111b:0012
#11117:52520052
#11114:00520000000000520000000000000000
#11115:0052005200000000
#11116:00000052005200000000000000000000
#1111a:00000000000000000052000000000052
#11119:0000000000520052
#11118:00000000000000000000005200520000
#11213:1212
#11218:00120000000000000012000000000000
#11214:0012000000120000
#11219:00000012000000000000001200000000
#11215:00120012
#1121a:00000000001200000000000000120000
#11216:0000001200000012
#1121b:52000000000000120000000000000023
#06213:0012000000001200
#0621b:0000001200120000
#06217:0012000022000012
#0631b:12
#06317:0022
#0581b:0012000000001200
#05813:0000001200120000
#05817:0012000022000012
#0611b:1200000000000012
#06117:0000000022000012
#06119:00120012
#06115:0000120000120000
#06113:1212
#06015:0000000000000012
#06019:00000012
#06013:0012000000120000
#0601b:0000001200000000
#06017:0012000022000000
#0591a:0000000000000012
#05914:00000012
#05917:00122200
#05913:12
#05717:0000000022000012
#05715:00120012
#05719:0000000000120000
#0571b:0012
#05713:1200000000000012
#05718:26
#05615:0000001200000012
#05617:0012000000001200
#05619:0000001200120000
#05613:0012000000000000
#05517:0000000000000012
#0551b:1200000000000012
#05519:00121200
#05515:0000000000120000
#05417:0000000000000012
#05413:00000012
#05419:0012000000000000
#05415:0012000000000000
#05317:0000000012000012
#05315:00000012
#05319:0000000000120000
#0531b:1212
#05313:0000120000000012
#05318:00120000
#05316:12
#05218:0012000000001200
#05213:0012000000000000
#05214:0000000000120012
#05216:0000001200000000
#0521b:0000001200000000
#05113:12
#0511a:0000000000000012
#05114:00000012
#05017:0000000000000012
#0501b:00000012
#05015:0012000000000000
#05019:0012000000000000
#04917:0000000012000012
#04919:00000012
#04915:0000000000120000
#04913:0012
#0491b:0000120000000012
#0491f:11
#04912:26
#04818:00000054005400000013001300130013
#04815:0000000013131313
#04812:5414000000000000
#0481a:0014005400000000
#04816:00540000
#0471a:1400001400541400
#04712:1400541400001400
#04714:00540054000000000000000000540054
#04716:0054000054000054
#04718:00000000000000540054000000000000
#04418:00000000000000000000130000130000
#04415:00000000000000000013000013000000
#04412:0014005400000013
#0441b:0013
#0441a:5414000000000000
#04414:00000054005400000000000000000000
#04416:00540000
#0461a:14140014
#04617:0014000000000014
#04612:14140014
#04615:0000001313130000
#04618:00000000000000130013000000000000
#04515:00001300000000130013000000001400
#0451a:00240014
#04512:00240014
#04518:2600001313130000
#04312:1400001400541400
#0431a:1400541400001400
#04318:00540054000000000000000000540054
#04316:0054000054000054
#04314:00000000000000540054000000000000
#04212:14140014
#04215:00001400000000130013000000001400
#0421a:14140014
#04218:0000001313130000
#04117:0000000000000014
#04112:00000014
#0411a:00000014
#04115:0000001313130000
#04118:26000000000000130013000000000000
#04110:41
#04012:0014000000000013
#0401a:0014000000000000
#04015:00000000005400000000000013000000
#04018:0000000000130000
#0401b:0013
#04016:5400005400000000
#04014:00540000
#04013:00000054000000000000000000000000
#0391a:1400001400001400
#03912:1400001400001400
#03917:00000054000000000000000000000054
#03918:0054000000000054
#03919:00540000000000000000000000540000
#03916:0000540000540000
#03915:00000000000000000054000000000000
#03914:0054
#03913:00000000000000540000000000000000
#03812:14140014
#03817:0014000000000000
#0381a:14140014
#03815:00000000000000130000130000001400
#03818:0000001313000000
#03715:0000001313000014
#03712:26240014
#0371a:00240014
#03718:00001300000000130000130000000000
#0361a:0014000000000000
#0361b:0000000000000013
#03618:00540013
#03615:0000000000130000
#03612:0014000013000000
#03616:5400005400000000
#03617:00000000005400000000000000000000
#03619:00000054000000000000000000000000
#03512:1400001400001400
#0351a:1400001400001400
#03515:00000054000000000000000000000054
#03514:0054000000000054
#03513:00540000000000000000000000540000
#03516:0000540000540000
#03517:00000000000000000054000000000000
#03518:0054
#03519:00000000000000540000000000000000
#0341a:14140014
#03415:0014001313000000
#03412:14140014
#03417:0000000000000014
#03418:00000000000000130000130000000000
#03317:0000000000000014
#0331a:00240014
#03312:26240014
#03315:00000000000000130000130000000000
#03318:2600001313000000
#03310:41
#03112:1400001400001400
#03117:0013000013000013
#0311b:0000530000530000
#03119:00000053000000000053000000000053
#03218:00160000
#03212:0016001616000000
#0321b:53
#0301b:0000131300000013
#03016:0000131300000013
#03017:0000000053130000
#03012:0000000053130000
#03019:00000000000000530000000000000000
#03014:00000000000000530000000000000000
#02916:2400000053130000
#0291b:1313000053130000
#02912:0000131300000000
#02917:0000131300000000
#02914:00000000000000530000000000000000
#02919:00000000000000530000000000000000
#0281b:0000130000000013
#02818:00001300000000130000130000000000
#02812:0000130000130000
#02815:1300001313000000
#0271a:0000000000000014
#02712:0000130000140000
#02718:1300001313000000
#02715:00001300000000130000000000000000
#0271b:00130000
#02612:0000130000000014
#0261a:0000000000140000
#02615:1300001313000000
#02618:00001300000000130000000000000000
#0261b:00130000
#0251a:2400000000000014
#02512:0000130000140000
#02518:0000001313000000
#02515:00000000000000130000000000000000
#0251b:00130000
#02514:0013000000000000
#02516:13
#02416:0000000013000013
#02412:0013001300130000
#02417:0013000000130000
#0241b:0013
#02419:00130000
#02414:00130000
#02219:0013001300000000
#02214:0013000000000000
#02212:0013
#02217:0013
#0221b:00130000
#02216:00130000
#02114:0000001300000000
#02117:13130000
#0211b:0013
#02116:0013
#02112:24130000
#02119:0013000000000000
#02017:0000000013000013
#0201b:0013000000130000
#02016:0013000000130000
#02012:0013
#02014:00130000
#02019:00130000
#01917:0013000000000000
#01912:0013000000000000
#01916:0013
#0191b:0013
#01919:00130000
#01914:00130000
#01518:0013000000000000
#01514:0013
#01512:1400140000140024
#01519:0013
#0151a:1400140000000024
#01814:0013000000000000
#01819:0013000000000000
#0181b:0013
#01816:0013
#01812:00130000
#01817:00130000
#01712:1313
#01717:0013
#0171b:00130000
#01716:00130000
#01714:0013000000000000
#01718:26
#01710:41
#01318:0013001313001300
#01315:00000000000000130000000000000000
#01312:2400140000140000
#0131a:24
#00915:0013001313001300
#00918:00000000000000130000000000000000
#0091a:2400140000140000
#00912:24
#01418:0000000012000013
#01415:00000013
#01412:0000001300000000
#0141b:0000000000520000
#0141a:000000000000005200000000
#01419:000000000000000000000000005200000000000000000000
#01212:0000000000130014
#01216:0014001300140000
#0121b:0013000000000000
#0121a:0000001400000000
#01117:0000000000000013
#01119:0013
#0111a:1400140000140000
#01114:0013
#01112:14140000
#01115:0013000000000000
#01015:000000000000000000000000005200000000000000130000
#01016:0012
#01018:00000013
#0101b:0000001300000000
#01013:0000000000520000
#01014:000000000000005200000000
#00812:00000013
#00814:0000000000120000
#00813:0012
#0081a:00120000
#0081b:0012000000000000
#00716:0000000000000012
#0071b:13
#00714:0000000000120000
#00712:0012
#00715:00120000
#00717:12
#00616:0012000013005300
#00617:0000001200000000
#0061b:00005353
#0061a:000000000000000000000000005300000053000000000000
#00619:000000000000005353000000
#00615:000000000000000000000000005300000053000000000000
#00614:000000000000005353000000
#00618:0000000000530000
#00613:0000000000530000
#00518:13
#00515:1300000000000012
#00513:0000000000120000
#00516:0012
#00512:00120000
#00419:0000000000000012
#00415:0000000000000012
#00412:0000000000160000
#00312:13
#0031a:0000000000120000
#0031c:0012
#00319:00120000
#00317:12
#00217:0000001213005300
#00218:000000120000000000000000005300000053000000000000
#00212:00005353
#00213:000000000000000000000000005300000053000000000000
#00214:000000000000005353000000
#00219:000000000000005353000000
#00215:0000000000530000
#0021a:0000000000530000
#00115:13
#00119:0000000000000012
#0011b:0000000000120000
#00118:2312
#0011c:00120000
#02319:0013001300000000
#02314:0013000000000000
#02312:0013
#02317:0013
#0231b:00130000
#02316:00130000
#01618:0000002400000000
#01619:0024000000000000
#01614:0000002400000000
#01613:0024000000000000
#1151c:52
#06417:52
#06552:14
#06557:0024000000000000
#0655a:64
#04952:16
#06655:0024000000000000
#06652:64
#0665a:14000054
#06752:64000064
#0675a:0000005400000000
#06756:1400001400001400
#06755:0000000000000024
#06852:34
#06955:0024000000000000
#06952:54
#0695a:14
#07057:0024000000000000
#0705a:54
#07052:14000064
#07056:0000000000000024
#07157:54
#07152:3400000000000014
#0715a:0000000000000014
#07452:14000064
#0755a:54000054
#07552:0000006400000000
#07557:0000000000000024
#07556:1400001400001400
#0735a:14
#0765a:44
#08459:13
#08452:00130000
#08552:00000014
#0855a:00000014
#08652:00000014
#08755:64
#0875a:1400000000000014
#08752:0000000000000014
#0925b:00130013
#09256:13
#09252:0013
#08952:00000014
#0905a:00000014
#07755:00000014
#0775a:00000014
#08152:00160000
#08158:00160000
#07857:00000014
#07852:00000014
#09352:14
#09359:0000001300000000
#09354:00000013
#09454:0000001300000000
#09459:00000013
#0945a:14
#0955a:0000000000000014
#09658:00000016
#09652:0000000000000016
#1055b:52
#10653:62
#11054:0000001200000000
#05758:16
#04852:0014000000000000
#0475a:14000014
#04752:0000001400000000
#04558:16
#0445a:0014000000000000
#04352:14000014
#0435a:0000001400000000
#04158:00160000
#03752:16
#0405a:0014000000000000
#03952:14000014
#0395a:0000001400000000
#03652:0014000000000000
#0355a:14000014
#03552:0000001400000000
#03358:16
#03352:16
#03152:1400001400001400
#03057:0000000000130000
#03052:0000000000130000
#02956:1400000000130000
#0295b:0000000000130000
#0255a:1400000000000014
#02552:0000000000140000
#02254:0000000000000013
#02259:0000000000000013
#02159:0000000000000013
#02154:0000000000000013
#02152:14
#01954:0000000000000013
#01959:0000000000000013
#01859:0000000000000013
#01854:0000000000000013
#02852:0000000000630000
#0275a:0000000000000014
#02752:0000000000140000
#02652:0000000000000014
#0265a:0000000000140000
#02457:0000000000530000
#02056:0000000000630000
#01754:0000000000000013
#01759:0000000000000013
#01758:46
#01455:0013000000000000
#0145b:0013000000000000
#01058:0013000000000000
#01052:0013000000000000
#0085b:00000013
#00852:00000013
#01152:0000000000000014
#0115a:00140000
#0155a:0000000000000014
#01552:0000140000000014
#01658:0000001400000000
#01659:0014000000000000
#01654:0000001400000000
#01653:0014000000000000
#01256:0014000000140000
#0125a:0000001400000000
#0075b:63
#00458:0013000000160000
#00454:0000001400000000
#00355:0000000000000013
#00352:53
#00558:63
#00155:53
#02354:0000000000000013
#02359:0000000000000013
#001350:13
#002320:0023
#003320:13
#003350:0000000000000023
#003381:0000000000000013
#004381:0023000000000000
#004340:0014002400000000
#004381:0000001600260000
#005381:13
#0063b1:0023
#0073b1:13
#008381:23
#008350:13
#008330:0033000000000000
#008340:00330000
#008320:0000002300000000
#008381:0000001300000000
#0083a1:0033
#008391:0000000000330000
#0083b1:00000023
#009381:0000000000000013
#010381:0023000000000000
#009320:0000000000000013
#010320:0023000000000000
#011320:0000000000140024
#013350:0000000000000013
#014350:0023000000000000
#0133b1:0000000000000013
#0143b1:0023000000000000
#0153a1:0000000000140024
#017341:0000000000130023
#017390:0000000000130023
#018390:0000000000130023
#018341:0000000000130023
#019341:0000000000130023
#019390:0000000000130023
#020360:0000000000130000
#021320:24
#021390:0000000000130023
#021341:0000000000130023
#022341:0000000000130023
#022390:0000000000130023
#023340:0000000000130023
#023391:0000000000130023
#024371:0000000000130000
#0253a1:24
#028321:0000000000130000
#029361:24
#029321:0000000000000013
#030321:0023000000000000
#029370:0000000000000013
#030370:0023000000000000
#032380:0000000000160000
#033380:26
#032321:0000000000000016
#033321:26
#041381:16260000
#050371:0000001200220000
#050330:0000001200220000
#051390:00122200
#051351:00122200
#054371:0000001200220000
#0543b0:0000001200220000
#055350:00122200
#0593b0:00122200
#063330:00122200
#063370:0000000000120000
#064370:22
#0653a0:14240000
#065370:0054000000000000
#066320:14240000
#066350:0054000000000000
#0663a0:00000014
#066360:0000000000000054
#067360:24
#067321:14
#067361:0000542400000000
#0673a0:0000001400000000
#067360:0000000000542400
#067321:00000014
#067351:0000000000000054
#068321:24
#069321:14240000
#069351:0054000000000000
#0703a1:14240000
#070371:0054000000000000
#070321:00000014
#070361:0000000000000054
#071321:24
#071370:14
#0713a0:0000000000000024
#074320:00000014
#074360:0000000000000054
#075360:24
#0753a1:14
#075361:0000542400000000
#075320:0000001400000000
#075360:0000000000542400
#0753a1:00000014
#075371:0000000000000054
#0763a1:24
#080381:16
#080321:00000026
#0863a1:00000014
#0873a1:24
#087350:14
#087320:0000000000000024
#1053b0:12000000000000000032000000000000
#105380:00000032000032000000000032000000
#105390:00000000000000320000003200000000
#1053a0:0000000032320000
#106380:22
#106331:12000000000000000032000000000000
#106361:00000032000032000000000032000000
#106351:00000000000000320000003200000000
#106341:0000000032320000
#107361:22
#1123b1:00000000000000000000000000000013
#1153c1:22
#002920:00001323
#002950:0000000000530000
#002971:00001323
#0029a1:0000000000530000
#0069b1:00001323
#006981:0000000000530000
#006960:00001323
#006930:0000000000530000
#010960:0012
#010930:0000000000220000
#014980:0012
#0149b0:0000000000220000
#029920:0000001300000000
#029960:0023
#029971:0000001300000000
#0299b1:0023
#0309b1:0000001300000000
#030971:0023
#030960:0000001300000000
#030920:0023
#031970:0013000000000000
#0319b0:00230000
#031970:0013
#0319b0:0000000000230000
#031970:0000000000000013
#0329b0:23
#035920:14
#035960:00240000
#0359a0:0000001400000000
#035960:0000000000240000
#035920:00000014
#036960:24
#0369a0:0014000000000000
#036960:0000002400000000
#0399a0:14
#039960:00240000
#039920:0000001400000000
#039960:0000000000240000
#0399a0:00000014
#040960:24
#040920:0014000000000000
#040960:0000002400000000
#0439a0:14240000
#043960:0054000000000000
#043920:0000001400240000
#043960:0054
#0439a0:00000014
#043960:0000000000000054
#0449a0:24
#044920:0014002400000000
#044960:00540000
#047920:14240000
#047960:0054000000000000
#0479a0:0000001400240000
#047960:0054
#047920:00000014
#047960:0000000000000054
#048920:24
#0489a0:0014002400000000
#048960:00540000
#071920:0000001300230000
#071960:0053
#0879b0:0000001300230000
#087970:0053
#095920:001400000000000000000000000000000000000000000000000000000000000000000000000000000000000000000000000000000000000000000000000000000000000000000000000000000000000000000000000000000000000000000000000000000000000000000000000000000000000000000000000000000000000000000000000000000000000000000000000000000000000000000000000000000000000000000000000000000000000000000000000000000000000000000000000000000000000000000000000000000000000000000000000000000000000000000000000000000000000000000000240000000000000000000000000000000000000000000000000000000000000000000000000000000000000000000000000000000000000000000000000000000000000000000000000000000000000000000000000000000000000000000000000000000000000000000000000000000000000000000000000000000000000000000000000000000000000000000000000000000000000000000000000000000000000000000000000000000000000000000000000000000000000000000000000000000000000000000000000000000000000000000000000000000000000000000000000000000000000000000000000000000000000000000000000000000000000000000000000000000000000000000000000000000000000000000000000000000000000000000000000000000000000000000000000000000000000000000000000000000000000000000000000000000000000000000000000000000000000000000000000000000000000000000000000000000000000000000000000000000000000000000000000000000000000000000000000000000000000000000000000000000000000000000000000000000000000000000000000000000000000000000000000000000000000000000000000000000000000000000000000000000000000000000000000000000000000000000000000000000000000000000000000000000000000000000000000000000000000000000000000000000000000000000000000000000000000000000000000000000000000000000000000000000000000000000000000000000000000000000000000000000000000000000000000000000000000000000000000000000000000000000000000000000000000000000000000000000000000000000000000000000000000000000000000000000000000000000000000000000000000000000000000000000000000000000000000000000000000000000000
#095960:000000000000000000000000000000000000000000000000000000000000000000000000000000000000000000000000000000000000000000000000000000000000000000000000000000000000000000000000000000000000000000000000000000000000000000000000000000000000000000000000000000000000000000000000000000000000000000000000000000000000000000000000000000000000000000000000000000000000000000000000000000000000000000000000000000000000000000000000000000000000000000000000000000000000000000000000000000000000000000000054000000000000000000000000000000000000000000000000000000000000000000000000000000000000000000000000000000000000000000000000000000000000000000000000000000000000000000000000000000000000000000000000000000000000000000000000000000000000000000000000000000000000000000000000000000000000000000000000000000000000000000000000000000000000000000000000000000000000000000000000000000000000000000000000000000000000000000000000000000000000000000000000000000000000000000000000000000000000000000000000000000000000000000000000000000000000000000000000000000000000000000000000000000000000000000000000000000000000000000000000000000000000000000000000000000000000000000000000000000000000000000000000000000000000000000000000000000000000000000000000000000000000000000000000000000000000000000000000000000000000000000000000000000000000000000000000000000000000000000000000000000000000000000000000000000000000000000000000000000000000000000000000000000000000000000000000000000000000000000000000000000000000000000000000000000000000000000000000000000000000000000000000000000000000000000000000000000000000000000000000000000000000000000000000000000000000000000000000000000000000000000000000000000000000000000000000000000000000000000000000000000000000000000000000000000000000000000000000000000000000000000000000000000000000000000000000000000000000000000000000000000000000000000000000000000000000000000000000000000000000000000000000000000000000000000000000000000000000000000000000000000000000000000000000000000000000000000000000000000000000000000000000000000000000000000000000000000000000000000000000000000000000000000000000000000000000000000000000000000000000000000000000000000000000000000000000000000000000000000000000000000000000000000000000000000000000000000000000000000000000000000000000000000000000000000000000000000000000000000000000000000000000000000000000000000000000000000000000000000000000000000000000000000000000000000000000000000000000000000000000000000000000000000000000000000000000000000000000000000000000000000000000000000000000000000000000000000000000000000000000000000000000000000000000000000000000000000000000000000000000000000000000000000000000000000000000000000000000000000000000000000000000000000000000000000000000000000000000000000000000000000000000000000000000000000000000000000000000000000000000000000000000000000000000000000000000000000000000000000000000000000000000000000000000000000000000000000000000000000000000000000000000000000000000000000000000000000000000000000000000000000000000000000000000000000000000000000000000000000000000000000000000000000000000000000000000000000000000000000000000000000000000000000000000000000000000000000000000000000000000000000000000000000000000000000000000000000000000000000000000000000000000000000000000000000000000000000000000000000000000000000000000000000000000000000000000000000000000000000000000000000000000000000000000000000000000000000000000000000000000000000000000000000000000000000000000000000000000000000000000000000000000000000000000000000000000000000000000000000000000000000000000000000000000000000000000000000000000000000000000000000000000000000000000000000000000000000000000000000000000000000000000000000000000000000000000000000000000000000000000000000000000000000000000000000000000000000000000000000000000000000000000000000000000000000000000000000000000000000000000000000000000000000000000000000000000000000000000000000000000
#0959a0:000000000000000000000000000000000000000000000000000000000000000000000000000000000000000000000000000000000000000000000000000000000000000000000000000000000000000000000000000000000000000000000000000000000000000000000000000000000000000000000000000000000000000000000000000000000000000000000000000000000000000000000000000000000000000000000000000000000000000000000000000000000000000000000000000000000000000000000000000000000000000000000000000000000000000000000000000000000000000000000000001400000000000000000000000000000000000000000000000000000000000000000000000000000000000000000000000000000000000000000000000000000000000000000000000000000000000000000000000000000000000000000000000000000000000000000000000000000000000000000000000000000000000000000000000000000000000000000000000000000000000000000000000000000000000000000000000000000000000000000000000000000000000000000000000000000000000000000000000000000000000000000000000000000000000000000000000000000000000000000000240000000000000000000000000000000000000000000000000000000000000000000000000000000000000000000000000000000000000000000000000000000000000000000000000000000000000000000000000000000000000000000000000000000000000000000000000000000000000000000000000000000000000000000000000000000000000000000000000000000000000000000000000000000000000000000000000000000000000000000000000000000000000000000000000000000000000000000000000000000000000000000000000000000000000000000000000000000000000000000000000000000000000000000000000000000000000000000000000000000000000000000000000000000000000000000000000000000000000000000000000000000000000000000000000000000000000000000000000000000000000000000000000000000000000000000000000000000000000000000000000000000000000000000000000000000000000000000000000000000000000000000000000000000000000000000000000000000000000000000000000000000000000000000000000000000000000000000000000000000000000000000000000000000000000000000000000000000000000000000000
#095960:000000000000000000000000000000000000000000000000000000000000000000000000000000000000000000000000000000000000000000000000000000000000000000000000000000000000000000000000000000000000000000000000000000000000000000000000000000000000000000000000000000000000000000000000000000000000000000000000000000000000000000000000000000000000000000000000000000000000000000000000000000000000000000000000000000000000000000000000000000000000000000000000000000000000000000000000000000000000000000000000000000000000000000000000000000000000000000000000000000000000000000000000000000000000000000000000000000000000000000000000000000000000000000000000000000000000000000000000000000000000000000000000000000000000000000000000000000000000000000000000000000000000000000000000000000000000000000000000000000000000000000000000000000000000000000000000000000000000000000000000000000000000000000000000000000000000000000000000000000000000000000000000000000000000000000000000000000000000000000000000000000000000000000000000000000000000000000000000000000000000000000000000000000000000000000000000000000000000000000000000000000000000000000000000000000000000000000000000000000000000000000000000000000000000000000000000000000000000000000000000000000000000000000000000000000000000000000000000000000000000000000000000000000000000000000000000000000000000000000000000000000000000000000000000000000000000000000000000000000000000000000000000000000000000000000000000000000000000000000000054000000000000000000000000000000000000000000000000000000000000000000000000000000000000000000000000000000000000000000000000000000000000000000000000000000000000000000000000000000000000000000000000000000000000000000000000000000000000000000000000000000000000000000000000000000000000000000000000000000000000000000000000000000000000000000000000000000000000000000000000000000000000000000000000000000000000000000000000000000000000000000000000000000000000000000000000000000000000000000000000000000000000000000000000000000000000000000000000000000000000000000000000000000000000000000000000000000000000000000000000000000000000000000000000000000000000000000000000000000000000000000000000000000000000000000000000000000000000000000000000000000000000000000000000000000000000000000000000000000000000000000000000000000000000000000000000000000000000000000000000000000000000000000000000000000000000000000000000000000000000000000000000000000000000000000000000000000000000000000000000000000000000000000000000000000000000000000000000000000000000000000000000000000000000000000000000000000000000000000000000000000000000000000000000000000000000000000000000000000000000000000000000000000000000000000000000000000000000000000000000000000000000000000000000000000000000000000000000000000000000000000000000000000000000000000000000000000000000000000000000000000000000000000000000000000000000000000000000000000000000000000000000000000000000000000000000000000000000000000000000000000000000000000000000000000000000000000000000000000000000000000000000000000000000000000000000000000000000000000000000000000000000000000000000000000000000000000000000000000000000000000000000000000000000000000000000000000000000000000000000000000000000000000000000000000000000000000000000000000000000000000000000000000000000000000000000000000000000000000000000000000000000000000000000000000000000000000000000000000000000000000000000000000000000000000000000000000000000000000000000000000000000000000000000000000000000000000000000000000000000000000000000000000000000000000000000000000000000000000000000000000000000000000000000000000000000000000000000000000000000000000000000000000000000000000000000000000000000000000000000000000000000000000000000000000000000000000000000000000000000000000000000000000000000000000000000000000000000000000000000000000000000000000000000000000000000000000000000000000000000000000000000000000000000000000000000000000000000000000000000
#0999b0:0013000000000000
#099970:00230000
#099970:0013
#0999b0:0000000000230000
#0999b0:0000000000000013
#100970:23
#100970:00130000
#1009b0:0000002300000000
#103920:0013000000000000
#103960:00230000
#103960:0013
#103920:0000000000230000
#103920:0000000000000013
#104960:23
#104960:00130000
#104920:0000002300000000
#105960:0000001200002200
#105930:00000000000000000052000000000000
#106980:0000001200002200
#1069b0:00000000000000000052000000000000
#107920:00000013
#108960:23
#1089b0:0013000000000000
#108970:0000002300000000
#108920:0000000000130000
#108960:0000000000000023
#110980:00000000000000000012000000000000
#1109b0:00000052
#111970:22
#111931:1222
#111971:00520000
#1119b0:0012
#111970:00000052
#1129b0:22
