This file was generated by Ched 2.7.0.0.
#TITLE ""
#ARTIST ""
#DESIGNER ""
#DIFFICULTY 0
#PLAYLEVEL
#SONGID ""
#WAVE ""
#WAVEOFFSET 0
#JACKET ""
#REQUEST "ticks_per_beat 480"
#00002: 4
#BPM01: 200
#00008: 01
#TIL00: ""
#VOLUME: ""
#HISPEED 00
#MEASUREHS 00
#00016:00000012
#00018:00000000000000000000000000520000
#0001a:0000000000000052
#0001c:00000000000000000000000000000052
#0011c:0000120000120000
#00116:0000120000120000
#00114:0012
#00112:2600000000000012
#00118:0000000000000012
#0011a:0012
#00216:000000120000000000120000005200000000000000120000
#0021c:0012001200000000
#00218:00001212
#00214:000000000000005200000000
#00212:0000000000520000
#0031a:12
#00314:12
#0031c:0000120000120000
#00316:0000120000120000
#00312:0000000012000012
#00318:0000000012000012
#00414:0012000000120000
#0041a:0012000000120000
#0041c:0000001200000000
#00412:0000000000000012
#00416:0000001200000000
#0091b:00130013
#00916:00130013
#00919:0013000000000000
#00912:2300001313130000
#00917:23000000000000130000130000000000
#01119:0013000000000000
#01116:00131300
#01112:13
#01117:1300000000130000
#03214:0000001616000000
#0321b:0000130000130000
#03216:0016000000001616
#03215:13
#03212:00130000
#09618:00001300000000120012000016000000
#09612:2600130000000016
#09616:0000001212120000
#0961b:00130000
#00512:0000120000120000
#00518:0000120000120000
#0051a:1212
#0051c:0000000000000012
#00516:0000000000000012
#00514:1212
#00618:000000120000000000120000005200000000000000120000
#00612:0012001200000000
#00616:00001212
#0061a:000000000000005200000000
#0061c:0000000000520000
#00714:12
#0071a:12
#00712:0000120000120000
#00718:0000120000120000
#0071c:0000000012000012
#00716:0000000012000012
#0081a:0012000000120000
#00814:0012000000120000
#00812:0000001200000000
#0081c:0000000000000012
#00818:0000001200000000
#0101b:0000001300001300
#01016:0000001300001300
#01018:000000000000121200000000
#0101a:000000000000000000000000001200120000000000000000
#01014:0000000000000013
#01312:00130013
#01317:00130013
#01314:0013000000000000
#0131b:2300001313130000
#01316:23000000000000130000130000000000
#01514:0013000000000000
#0151b:13130000
#01516:13
#01518:0000001313131300
#01515:00000000000000130013001300130000
#01512:0000130000000024
#0151a:0000000000000024
#01412:0000001300001300
#01417:0000001300001300
#01416:000000000000121200000000
#01414:000000000000000000000000001200120000000000000000
#01419:0000000000000013
#01618:0000002600001212
#01616:00000000000000000000000000120012
#01612:0025002600130000
#0161b:0000000000130000
#01619:0025000000000000
#01715:0013001300000000
#01718:0000000000130000
#01712:2c
#01710:41
#01818:0013001300000000
#01815:0000000000130000
#01915:0013000000000000
#01918:0000001300130000
#02018:0013000000000000
#02015:0000001300001300
#02012:0000000000130013
#02115:0013130000000000
#02118:2300001300130000
#0211b:00000013000000001300000000000000
#02112:23
#02218:0013130000000000
#02215:0000001300130000
#02212:00000013000000001300000000000000
#0231b:0013000000000000
#02318:0000001300130000
#02315:00000013000000000000000000000000
#02412:0013000000130013
#02415:0000001300000000
#02418:00000013000000000000000000005300
#02419:000000000000000000000053
#0241a:000000000000000000000000000000000000000000000053
#02514:0013000000000000
#02512:00130000
#02517:0000130000130013
#02516:2400001313000000
#02513:00000000000000130000000000000000
#02515:00000013
#0251b:63
#02617:0013001313000000
#0261b:13130000
#02616:0000130000130013
#0261a:00000000000000130000000000000000
#02618:00000013
#02612:0013000000000000
#02716:0013001313000000
#02712:13130000
#02717:0000130000130013
#02713:00000000000000130000000000000000
#02715:00000013
#0271b:0013000000000000
#0281b:1300130000130000
#02812:00001300000013001300000000000013
#02817:00001300000000130000000000001300
#02816:00000000130000000000001300000000
#02819:00000013
#02814:00000000000000000000000000130000
#02915:00001300000000130000000000000000
#0291b:0000130000130013
#02912:2c130000
#02918:0000001313001300
#03012:1300130000130013
#03018:00001300000000130000000000000000
#0301b:00130000
#03015:0000001313001300
#0311b:1300001300001300
#03118:00000013000000001300130000000013
#03115:00001300130000000013000000001300
#03112:0000001300001300
#03315:00001600000000000013000016000000
#0331b:0000130000000013
#03317:0000001300000000
#03314:00000000000000130000000000000000
#03318:2613
#03319:0000000000130000
#03312:0000260000000013
#03310:41
#03416:1416
#03419:0013000000000000
#03414:0013000000000000
#0341b:00130000
#03412:00000000130000130000000000000000
#03415:0000001600000000
#03417:0000000000160000
#03413:00000000000000000013000016000000
#03418:0000000000000016
#03518:000000120012000000160000001200120000000000120012
#03516:000012120000121200000012
#03512:16000016
#03616:120000000000120012000000000000000000000000530000
#03618:000000160000001200120000000000000000160000000000
#03612:00001613
#0361b:0013
#03619:00000000000000000053000000000000
#03617:0000000000530000
#03614:00000000000000000000000000530000
#03715:0016000013001600
#03712:2600130000000013
#03717:0000001300000000
#0371a:00000000000000130000000000000000
#03718:00000000260000000013000000000000
#03713:0000000000130000
#0371b:1300000000000013
#03816:1400001600000000
#03814:0013000016000000
#03819:0013000000000000
#03812:0000130000160018
#0381b:00130000
#0381c:00000000000000120000000000000000
#0381a:00000000000000000012000000000000
#03818:00000016
#03915:0012000000120012
#03918:000012000000001200000012
#03916:180000000012000000000000001200000000180000000012
#03919:00121200
#03912:0000001800000000
#04016:000000000000001200000000180000530000000000000000
#04012:0018000013001800
#0401b:00000013
#04019:12000000120000000000000000530000
#04018:001200
#04015:0000001200000000
#04014:00000000000000000053000000000000
#04017:0000000000000053
#04116:0000001400000000
#04113:00000000000000130000000000000000
#04118:0014
#04115:00000000000000000013000016000000
#0411a:0000000000140000
#0411b:0000000000000013
#04112:2c00000000000013
#04110:41
#04216:14
#04219:0013000000000000
#04214:00001300000000000014000000001a00
#0421b:00130000
#04212:00000000130000140000000017000000
#04213:0000001700000000
#04215:0017
#04217:0000000000170000
#0431a:0012000000120012
#04316:000012000000001200000012
#04318:000000000012000000000000001200000000000000000012
#04314:0000121a12000000
#04312:1a00001a
#04412:00001a12
#0441c:0012
#04414:12001a0012000000000000001a520000
#04418:000000000000001200000000000000520000000000000000
#04416:000000000000000012000000000000000000000000520000
#0441a:00000000000012000052000000000000
#04515:00001416
#04512:2a00120000140013
#0451b:00000000000000130000000000001300
#04514:00182a0000000000
#0451c:12
#04518:00000000000014000013000000000000
#04616:1400001800001800
#04614:0013000018000000
#04619:00001300000000150000000000000000
#04612:000013000018001c
#0461b:00130000
#04617:00000000000000000015000000000000
#04712:1c00001c00001c00
#04715:000000120000000000000000001200000000000000120000
#04719:000012000000120000000012
#04717:000000000012000000000000000012000000000000000012
#0471b:00120000
#04713:0000000000120000
#0481b:1223000000130000
#04815:00000000000000000000001600001600
#04819:00000013
#04814:00000000000000000000000000130000
#04812:00001800000023000000000000000013
#04816:0000001800000000
#04916:00120000
#04918:0000001200000012
#0491a:0012
#0491c:00000012
#0491f:11
#04912:2c
#0501c:0012000012001200
#05016:0012000000000000
#05018:0000001200000000
#05012:0000001200000000
#0501a:1200000000000012
#0511c:12
#0511a:00120000
#05112:00000012
#05114:0000000000000012
#05212:1212000000120000
#05218:0012000000000000
#0521c:0000001200000000
#05216:0000001200001200
#05214:0000000000000012
#05312:12
#05314:00120000
#0531a:0000120000120000
#0531c:0012
#05318:0000000000000012
#0541c:0012000012000012
#05416:0012000000000000
#05412:0000001200000000
#05418:0000001200000000
#05419:00000012
#0541a:12
#0551a:12120000
#05514:00120000
#05512:0000000012000012
#05515:0000000000120000
#0561c:0012000000000000
#05616:0012000000120000
#05612:0000001200000012
#05618:0000001200000000
#05614:12000012
#05716:12120000
#05718:2600001200000012
#0571a:0012
#0571c:00000012
#0581c:0012000012000000
#05816:0012000000000000
#05818:0000001200001200
#05812:0000001200000000
#0581a:1200000000000012
#0591c:12
#0591a:00120000
#05916:00000012
#05914:0000000000000012
#06012:1212000000120000
#06018:0012000000000000
#0601c:0000001200000000
#06016:0000001200001200
#06014:0000000000000012
#06112:12
#06114:00120000
#0611a:0000120000000012
#0611c:0012
#06118:0000000000120000
#0621c:0012000012000012
#06216:0012000000000000
#06212:0000001200000000
#06218:1200001200001200
#0631a:12120000
#06314:00120000
#0631c:0012
#06312:0012
#06514:0013000000000000
#0651a:24000013000000000000000000000000
#06512:24130013
#06517:00130013
#0651b:0000001300130013
#06516:00000000000000130013000000000000
#0651f:21
#06617:13000000000000130013000000000000
#06612:1300001300131300
#06616:00130000
#0661b:00130013
#06615:00000000000000000000000000000013
#06618:0000000000000013
#06613:00000013000000000000000000000000
#06619:0013000000000000
#06610:41
#06715:00130013000000000000000000000000
#06717:0013000000000000
#0671a:24140000
#06718:00000000000000130013000000000000
#06716:0000000013001414
#06712:00000000000024000000140000130013
#06919:0013000000000000
#06913:00000013000000000000000000000000
#0691b:00130013
#06916:00130013
#06912:2400001300130013
#06917:00000000000000130013000000000000
#0691a:24
#07016:13000000000000130013000000000000
#0701b:1300001300131300
#07019:0013000000000000
#07017:00130000
#07012:00130013
#07018:00000000000000000000000000000013
#07015:0000000000000013
#07118:00130013000000000000000000000000
#07116:0014000014000000
#07112:24140000
#07115:00000000000000130013000000000000
#0711a:0000002400140000
#07114:00000014
#07117:00000000000000000000000000140000
#07113:0000000000000014
#07212:0053000016160000
#07218:000000000000000000005300000000000000000000000000000000130000000000000000160000000000130000000000
#07215:000000000000000053000000000000000000000000000000000000000000000000000000000000130000000000130000
#0721b:00530000
#07216:0054000000000000
#07312:24000000140000140000000000000000
#07316:0014000014000014
#0731a:24000024000014000000000054000000
#07317:00000000000000000054000000000000
#07318:0000000000540000
#07319:00000000000000000000005400000000
#07412:24000024000014000000000054000000
#0741a:24000000140000140000000000000000
#07416:0014000014000014
#07415:00000000000000000054000000000000
#07414:0000000000540000
#07413:00000000000000000000005400000000
#07512:1400001400000000
#07516:00000012000000000000120000000000
#07518:00000000120000000012000000000000
#0751a:0000001400001400
#0761a:00000000001400000014001400140014
#07612:0000001400000014
#07616:00001400000000140000140000000000
#07617:00220022
#07613:0022
#07716:0014001400001400
#07712:2c000000000000140000000000001400
#07714:00000000000000000014000000000000
#0771a:0000140000140000
#07718:0014
#07816:0014001400001400
#0781a:24000000000000140000000000001400
#07818:00000000000000000014000000000000
#07812:2400140000140000
#07814:0014
#07912:00140000001400000000000014000000
#07917:0014001400001400
#07915:00000014000000140014000000001400
#0791a:2400240024140014
#08112:2c000000000014000000001400000000
#0811a:00000000000000140000140000000000
#08116:00001414
#08114:0000000000000014
#08118:00000000000000000000000000000014
#08110:00410000
#08212:16160013
#0821b:00130013000013000000130013000000
#08218:00001400000000000000000000000013
#08216:00000000000000130013000000000000
#08215:0000000000000013
#08316:00141414000000141414000014001400
#08312:24140000
#0831a:0000002400140000
#08318:00000000000000000000000000160016
#08515:0013000000000000
#08518:00000013000016000000160016000000
#08512:24130013
#0851b:00130000
#08516:00000000000000140014000000001400
#0851a:24
#08616:14000000140000140014000000000000
#08612:1300001600161600
#08619:0013000000000000
#0861b:00130013
#08615:00000000000000000000000000000013
#08618:0000000000000013
#08716:00141414000000141414000014000000
#0871a:24140000
#08712:0000002400140000
#08714:00000000000000000000000000140000
#08718:0000000000000014
#08818:000000000000000063000000000000000000000000000000000000130000000000000000160000000000130000000000
#08815:000000000000000000006300000000000000000000000000000000000000000000000000000000130000000000130000
#08812:0000640016160000
#0881a:2464000000000000
#08816:0054000000000000
#08916:0014001800005800
#08912:24000000140000141800000000001c00
#0891a:24000024000000000000000000000000
#08913:00000000000000000058000000000000
#08914:0000000000580000
#08915:00000000000000000000005800000000
#09012:24000024000018000000000058001c00
#0901a:24000000140000140000000000000000
#09016:0014000018000000
#09015:00000000000000000058000000000000
#09014:0000000000580000
#09013:00000000000000000000005800000000
#09112:1400001400000000
#09115:00000013000000000000000000000000
#09116:0000140000140000
#0911a:0000001400001400
#09118:00000000000000000013000000000000
#0921a:00000000001400000014001400140014
#09212:001c001400000014
#09216:00000000000000140000140000000000
#09217:00220022
#09213:0022
#0931a:00140014001400140014001400000000
#09312:2c14000014000000
#09314:0000150000160056
#09316:0000002600001800
#09315:00000000000000000000000000570000
#09313:00000000000000000000000000000055
#09516:00141400001414000000160000002600
#0951a:54000014000000140000000000000000
#09512:14141626
#09514:00000000000000000016000000260000
#09518:00000000000000000000001600000026
#09715:00130000130000000000000023000000
#09718:00000000000000130000130000000000
#0971b:23000000000000000000000000130000
#09712:0000002300000000
#09710:41
#0981b:13002323
#09812:00000013000013000000001300000013
#09815:00000000000000000013000000001300
#09818:00002300000000000000130000130000
#10018:00001300130000000000000000000054
#10015:00130000001300000000000000000000
#1001a:00000000000000000014000024000000
#10016:2800002800140014
#10012:00000028000000002400000054140000
#10014:00000000000000000000005400000000
#10116:00140000000000160014180000000000
#10112:2314180000002618
#10117:00000013000000000000000000000000
#10118:0016
#10113:00000000000000000000000000170000
#10115:00000000000000000000000000000015
#1011a:5400002400000000
#10214:00000000000000000016000000160000
#10216:00002818181818000000160000001600
#10218:00000000000000000000001600000016
#10212:18002626
#09915:00000000000000002300000000130013
#09918:0023000000001313
#09916:005300000000
#09914:000000000053000000000000000000000000000000000000
#09912:00530000
#09917:000000000000000000000000005300000000000000000000
#09919:000000000000005300000000
#0991b:0000000000530000
#10318:0000000023001212
#10316:000000000000000000000000000000000000000000000000000053000000000000000000000000120000000000120000
#10315:0023000000000000
#10317:005300000000
#10319:000000000053000000000000000000000000000000000000
#1031b:00530000
#10314:000000000000005300000000
#10312:0000000000530000
#10418:16000000000012001200000000520000
#10412:000016001c0000000000005200000000
#1041c:00000000000000120000000000000052
#10416:00000000000000000052000012000000
#1041a:0000000000000052
#10414:0000000000520000
#1051c:00000012000000000000000000000000
#10512:0000001200000000
#10518:00000000000000120000000000120000
#10515:00001212
#1051a:00000000000000000012001200000000
#10516:0000000000120000
#10612:00000012000000000000000000000000
#1061c:0000001200000000
#10616:00000000000000120000000000000000
#10619:00001212
#10614:00000000000000000012001200001200
#10618:00000000000000000000120000000012
#1071c:0012000052120000
#10712:0000521200005200
#10716:00005200000000000000520000520000
#10714:00000052000000000000005200000000
#10718:0000005200005252
#1071a:00000000000000520000005200000052
#1081c:52001200000000005200520000000012
#10812:00000000005200000000120000000000
#10818:00005200520052005200001200000000
#10814:0000525200001200
#1081a:00000052000000520000000000120000
#10816:00000052005200520000000000001200
#1091a:00001200000000000052000000000000
#1091c:0012
#10912:00520012
#10918:00000052000000520000520000001200
#10916:00000000520052000000005200000012
#10914:00000000005200000000000000000000
#11014:12000000000000000012000000000052
#11016:0012000000520052
#11018:00000012000000000000005200520000
#1101a:0000001200005200
#1111c:12000000000000520000000000000052
#11118:00001200005200001200000000520000
#11114:00000012000000000000520000000000
#11116:00000000120000000052000012000000
#11112:52000000000000000000005200000000
#1111a:0000005200000052
#11212:13000000000000000000000056000023
#11214:000053000000000000000000530000000000000000000000000000000000000000000000000000560000000000000000
#11216:000053000000005300000000530000000000000000560000
#11213:0053000000000000
#11215:000000005300000000530000000000000000000000000000
#11217:000000000053000000005300000000530000000000000000
#11218:000000000000000000000000000000005300000000000000000053000000000000000000000000000000000000560000
#11219:000000000000000000000053000000005300000000000000
#1121a:000000000000005300000000
#1121b:000000000000000000000000000000000053000000000000
#06812:00001300001300001600000000000000
#06818:00000000000000000013001600002300
#06816:28000028000028000000000000000000
#06815:00000023
#08418:00001600001600001600000000000000
#08412:28000028000028000000001600000000
#08415:00000000000000000016000026002600
#09412:2c140014001400140014001418000000
#0941a:0014000014000000
#09417:00150000
#09416:0000000000160056
#09414:00000000000026000000000000570000
#09418:00000000000000000000000000000055
#11512:61
#02952:1c
#02955:0000000000000033
#0295b:0000000000000043
#01052:0043000000000000
#01057:0043000000000000
#01156:00130000
#01157:0000000000130000
#01256:0000003300000000
#0125b:0000003300000000
#0145b:0033000000000000
#01456:0033000000000000
#01552:0000130000000034
#0155a:0000000000000044
#01652:0035003600000000
#01659:0045000000000000
#01658:0000004600000000
#01752:4c
#01755:0000000000000033
#0175b:0000000000000033
#01852:0000000000000043
#01858:0000000000000043
#01955:0000000000000033
#0195b:0000000000000033
#02155:0000000000000033
#0215b:0000000000000033
#02158:43
#02152:43
#02252:0000000000000043
#02258:0000000000000043
#02355:0000000000000033
#0235b:0000000000000033
#0255b:43
#02552:0000000000000043
#02557:0000000000000043
#02452:0000000000130000
#02656:0000000000000033
#0265b:0000000000000033
#02757:0000000000000043
#02752:0000000000000043
#03052:0000000000000033
#03058:0000000000000043
#03155:00130000
#03158:0000000000130000
#03255:13
#03358:46
#03352:00360000
#03359:0000000000430000
#03459:0043000000000000
#03454:0033000000000000
#03457:0000000000460000
#03458:0000000000000046
#03453:00000036
#03552:36000036
#03558:0000004600000000
#03658:0046000000004600
#03652:0036
#03753:0000000000330000
#03752:36
#03758:00460000
#03854:0033000000000000
#03859:0043000000000000
#03852:0000000000360038
#03858:00000046
#03956:48000048
#03952:0000003800000000
#04056:0048
#04052:0038000000003800
#0415a:0000000000440000
#04152:001c0000
#04259:0043000000000000
#04254:003300000000004a
#04257:0000000000470000
#04252:00000037
#04352:3a00003a
#04354:0000004a00000000
#04452:003a
#04454:004a000000004a00
#04654:0033000000000000
#04659:0043000000000000
#04652:000000000038003c
#04656:00000048
#04752:4c00003c00004c00
#04552:3a00000000340000
#04554:004a0000
#04952:1c
#04852:0018000000000000
#04856:0000001800000000
#06457:12
#0655a:14
#06552:14130013
#0665b:00130013
#0695b:00130013
#06952:14
#0695a:14
#07052:00130013
#0675a:00140000
#06752:0000000000140000
#07152:00140000
#0715a:0000000000140000
#0725b:00430000
#07558:00420000
#07556:0000000000320000
#0755a:14000014
#07552:0000001400000000
#07452:14000014000000000000000000000000
#0745a:14
#0735a:14000014000000000000000000000000
#07352:14
#07652:14
#07752:3c
#0795a:0000000000140014
#07955:0000000000000014
#08156:00001414
#08152:001c0000
#08252:00160013
#08352:00140000
#0835a:0000000000140000
#08552:14130013
#0855a:14
#0865b:00130013
#0875a:00140000
#08752:0000000000140000
#09156:0000440000340000
#09152:0000001400000000
#0915a:14000014
#0895a:14000014000000000000000000000000
#08952:14
#09052:14000014000000000000000000000000
#0905a:14
#09352:3c
#09356:0000003600000000
#08852:00340000
#09252:14
#09658:00000046
#09652:0000000000000036
#09755:00130000
#0975b:00130000
#09758:0000000000130000
#09752:0000000000130000
#0985b:13
#09855:13
#09852:0000001300000000
#09858:0000001300000000
#0995b:0000130000430000
#09952:0000330000130000
#10056:4800004800000000
#10052:00000038000000000000000000000000
#1035b:00430000
#10352:0000160000330000
#10358:0000000000160000
#10152:00180000
#10156:0000000000180000
#10452:004c0000
#10556:00000012000000000000000000000000
#1055c:00000012000000000000000000000000
#10652:00000012000000000000000000000000
#10658:00000012000000000000000000000000
#10659:00000012
#1105a:0000001200000000
#11054:0000001200000000
#11152:12
#1115c:12
#11258:00000000000000000000000000000016
#0785a:14
#06856:48000048000048000000000000000000
#08452:38000038000038000000000000000000
#09452:4c
#09454:0000004600000000
#10256:0000001800000000
#10252:18
#05758:16
#009320:0000000000000013
#010320:0023000000000000
#009371:0000000000000013
#010371:0023000000000000
#0113b1:00132300
#011321:0000000000130023
#0113b0:0000000000000013
#0123b0:0000002300000000
#012361:0013002300000000
#012321:0000000000130023
#012370:0000000000130023
#0133b0:0000000000000013
#0143b0:0023000000000000
#013361:0000000000000013
#014361:0023000000000000
#0173b1:00132300
#017350:0000000013000023
#0173b1:0000000000001323
#018321:00132300
#018380:0000000013000023
#018321:0000000000001323
#0193b1:00132300
#019350:0000000013000023
#0193b1:0000000000001323
#020321:00132300
#020380:0000000013000023
#021350:0000000013000023
#0213b1:0000000000001323
#022381:0000000013000023
#022320:0000000000001323
#0233b0:00132300
#023351:0000000013000023
#0233b0:0000000000001323
#024320:00132300
#024381:0000000013000023
#025321:0000000000130023
#0263b1:0000000000130023
#027321:0000000000130023
#029351:0000000000130023
#030381:0000000000130023
#032321:0000000000130000
#033321:23
#041321:1c2c0000
#048351:0000000016260000
#049321:0016
#050321:26
#050341:0016
#051341:26
#051341:00122200
#051360:0016
#052360:26
#052380:0016
#053380:26
#053320:0016
#054320:26
#054340:0016
#055340:26
#055360:0016
#056360:26
#056380:0016
#057380:26
#057320:0016
#058320:26
#058340:0016
#059340:26
#059340:00122200
#059361:0016
#060361:26
#060381:0016
#061381:26
#061321:0016
#062321:26
#062341:0016
#063341:26
#063371:0000000000120000
#064371:22
#071361:00000000000000000000000000000014
#072361:0024000000000000
#072320:1323000000000000
#073320:00000014
#074320:24
#0743a0:00000014
#0753a0:24
#075320:00000014
#076320:24
#0763a1:14240000
#077321:0000142400000000
#0773a1:00000000000000000000000000140000
#0783a1:24
#0783a1:0000142400000000
#078321:00000000000000000000000000140000
#079321:24
#081321:1c2c0000
#087361:00000000000000000000000000000014
#088361:0024000000000000
#0883a0:1424000000000000
#089320:00000014
#090320:24
#0903a0:00000014
#0913a0:24
#091320:00000014
#092320:24
#0923a1:14240000
#0973b1:0013230000000000
#097321:0000000013230000
#097351:0000000000000013
#098351:23
#098381:0000132300000000
#0993b1:13230000
#099321:0000001300230000
#103321:16260000
#103381:0000001600260000
#105361:12000022000000000000000000000000
#105321:0000000000000012
#106321:22
#106380:12000022000000000000000000000000
#107360:1222000000000000
#107380:0000122200000000
#107360:0000000012220000
#108380:1222000000000000
#1083c0:0000000012220000
#109320:12220000
#1103a0:1222000000000000
#110340:0000122200000000
#112320:00000000000000000000000000000013
#115320:21
#000960:00000012
#0009c0:00000000000000000000000000000022
#002980:0012
#002920:0000000000220000
#006960:0012
#0069c0:0000000000220000
#024980:0000000000000013
#0259b0:23
#0369b0:0013
#036970:0000000000230000
#036920:00000013
#036960:0000000000000023
#040920:0013
#040960:0000000000230000
#0409b0:00000013
#040970:0000000000000023
#0449c0:0012
#044980:0000000000220000
#044920:00000012
#044960:0000000000000022
#072920:0013000000000000
#0729b0:00230000
#073960:0014
#0739a0:00000024
#074960:0014
#074920:00000024
#0889a0:0014000000000000
#088920:00240000
#089920:0018
#089960:00000028
#090960:0018
#090920:00000028
#093960:00000018
#094920:24
#094920:00000018
#0959a0:24
#099980:000000000000000000000000000000000000000000000000000000000000000000000000000000000000000000000000000000000000000000000000000000000000000000000000000000000000000000000000000000000000000000000000000000000000000000000000000000000000000000000000000000000000000000000000000000000000000000000000000000000000000000000000000000000000000000000000000000000000000000000000000000000000000000000000000000000000000000000000000000000000000000000000000000000000000000000000000000000000000000000000001300000000000000000000000000000000000000000000000000000000000000000000000000000000000000000000000000000000000000000000000000000000000000000000000000000000000000000000000000000000000000000000000000000000000000000000000000000000000000000000000000000000000000000000000000000000000000000000000000000000000000000000000000000000000000000000000000000000000000000000000000000000000000000000000000000000000000000000000000000000000000000000000000000000000000000000000000000000000000000000000000000000000000000000000000000000000000000000000000000000000000000000000000000000000000000000000000000000000000000000000000000000000000000000000000000000000000000000000000000000000000000000000000000000000000000000000000000000000000000000000000000000000000000000000000000000000000000000000000000000000000000000000000000000000000000000000000000000000000000000000000000000000000000000000000000000000000000000000000000000000000000000000000000000000000000000000000000000000000000000000000000000000000000000000000000000000000000000000000000000000000000000000000000000000000000000000000000000000000000000000000000000000000000000000000000000000000000000000000000000000000000000000000000000000000000000000000000000000000000000000000000000000000000000000000000000000000000000000000000000000000000000000000000000000000000000000000000000000000000000000000000000000000000000000000000000000000000000000000000000000000000000000000000000000000000000000000000000000000000000000000000000000000000000000000000000000000000000000000000000000000000000000000000000000000000000000000000000000000000000000000000000000000000000000000000000000000000000000000000000000000000000000000000000000000000000000000000000000000000000000000000000000000000000000000000000000000000000000000000000000000000000000000000000000000000000000000000000000000000000000000000000000000000000000000000000000000000000000000000000000000000000000000000000000000000000000000000000000000000000000000000000000000000000000000000000000000000000000000000000000000000000000000000000000000000000000000000000000000000000000000000000000000000000000000000000000000000000000000000000000000000000000000000000000000000000000000000000000000000000000000000000000000000000000000000000000000000000000000000000000000000000000000000000000000000000000000000000000000000000000000000000000000000000000000000000000000000000000000000000000000000000000000000000000000000000000000000000000000000000000000000000000000000000000000000000000000000000000000000000000000000000000000000000000000000000000000000000000000000000000000000000000000000000000000000000000000000000000000000000000000000000000000000000000000000000000000000000000000000000000000000000000000000000000000000000000000000000000000000000000000000000000000000000000000000000000000000000000000000000000000000000000000000000000000000000000000000000000000000000000000000000000000000000000000000000000000000000000000000000000000000000000000000000000000000000000000000000000000000000000000000000000000000000000000000000000000000000000000000000000000000000000000000000000000000000000000000000000000000000000000000000000000000000000000000000000000000000000000000000000000000000000000000000000000000000000000000000000000000000000000000000000000000000000000000000000000000000000000000000000000000000000000000000000000000000000000000000000000000000000000000000000000000000000000000000000000000000000000000000
#099920:00230000
#099950:000000000000000000000000000000000000000000000000000000000000000000000000000000000000000000000000000000000000000000000000000000000000000000000000000000000000000000000000000000000000000000000000000000000000000000000000000000000000000000000000000000000000000000000000000000000000000000000000000000000000000000000000000000000000000000000000000000000000000000000000000000000000000000000000000000000000000000000000000000000000000000000000000000000000000000000000000000000000000000000000000000000000000000000000000000000000000000000000000000000000000000000000000000000000000000000000000000000000000000000000000000000000000000000000000000000000000000000000000000000000000000000000000000000000000000000000000000000000000000000000000000000000000000000000000000000000000000000000000000000000000000000000000000000000000000000000000000000000000000000000000000000000000000000000000000000000000000000000000000000000000000000000000000000000000000000000000000000000000000000000000000000000000000000000000000000000000000000000000000000000000000000000000000000000000000000000000000000000000000000000000000000000000000000000000000000000000000000000000000000000000000000000000000000000000000000000000000000000000000000000000000000000000000000000000000000000000000000000000000000000000000000000000000000000000000000000000000000000000000000000000000000000000000000000000000000000000000000000000000000000000000000000000000000000000000000000000000000000000000000000000000000000000000000000000000000000000000000000000000000000000000000000000000000000000000000000000000000000000000000000000000000000000000000000000000000000000000000000000000000000000000000000000000000000000000000000000000000000000000000000000000000000000000000000000000000000000000000000000000000000000000000000000000000000000000000000000000000000000000000000000000000000000000000000000000000000000000000000000000000000000000000000000000000000000000000000000000000000000000000000001300000000000000000000000000000000000000000000000000000000000000000000000000000000000000000000000000000000000000000000000000000000000000000000000000000000000000000000000000000000000000000000000000000000000000000000000000000000000000000000000000000000000000000000000000000000000000000000000000000000000000000000000000000000000000000000000000000000000000000000000000000000000000000000000000000000000000000000000000000000000000000000000000000000000000000000000000000000000000000000000000000000000000000000000000000000000000000000000000000000000000000000000000000000000000000000000000000000000000000000000000000000000000000000000000000000000000000000000000000000000000000000000000000000000000000000000000000000000000000000000000000000000000000000000000000000000000000000000000000000000000000000000000000000000000000000000000000000000000000000000000000000000000000000000000000000000000000000000000000000000000000000000000000000000000000000000000000000000000000000000000000000000000000000000000000000000000000000000000000000000000000000000000000000000000000000000000000000000000000000000000000000000000000000000000000000000000000000000000000000000000000000000000000000000000000000000000000000000000000000000000000000000000000000000000000000000000000000000000000000000000000000000000000000000000000000000000000000000000000000000000000000000000000000000000000000000000000000000000000000000000000000000000000000000000000000000000000000000000000000000000000000000000000000000000000000000000000000000000000000000000000000000000000000000000000000000000000000000000000000000000000000000000000000000000000000000000000000000000000000000000000000000000000000000000000000000000000000000000000000000000000000000000000000000000000000000000000000000000000000000000000000000000000000000000000000000000000000000000000000000000000000000000000000000000000000000000000000000000000000000000000000000000000000000000000000000000000000000000000000
#0999b0:0000000000230000
#100960:0000000000140000
#100920:00000024
#100960:0000000000000014
#1019a0:24
#103950:000000000000000000000000000000000000000000000000000000000000000000000000000000000000000000000000000000000000000000000000000000000000000000000000000000000000000000000000000000000000000000000000000000000000000000000000000000000000000000000000000000000000000000000000000000000000000000000000000000000000000000000000000000000000000000000000000000000000000000000000000000000000000000000000000000000000000000000000000000000000000000000000000000000000000000000000000000000000000000000000001300000000000000000000000000000000000000000000000000000000000000000000000000000000000000000000000000000000000000000000000000000000000000000000000000000000000000000000000000000000000000000000000000000000000000000000000000000000000000000000000000000000000000000000000000000000000000000000000000000000000000000000000000000000000000000000000000000000000000000000000000000000000000000000000000000000000000000000000000000000000000000000000000000000000000000000000000000000000000000000000000000000000000000000000000000000000000000000000000000000000000000000000000000000000000000000000000000000000000000000000000000000000000000000000000000000000000000000000000000000000000000000000000000000000000000000000000000000000000000000000000000000000000000000000000000000000000000000000000000000000000000000000000000000000000000000000000000000000000000000000000000000000000000000000000000000000000000000000000000000000000000000000000000000000000000000000000000000000000000000000000000000000000000000000000000000000000000000000000000000000000000000000000000000000000000000000000000000000000000000000000000000000000000000000000000000000000000000000000000000000000000000000000000000000000000000000000000000000000000000000000000000000000000000000000000000000000000000000000000000000000000000000000000000000000000000000000000000000000000000000000000000000000000000000000000000000000000000000000000000000000000000000000000000000000000000000000000000000000000000000000000000000000000000000000000000000000000000000000000000000000000000000000000000000000000000000000000000000000000000000000000000000000000000000000000000000000000000000000000000000000000000000000000000000000000000000000000000000000000000000000000000000000000000000000000000000000000000000000000000000000000000000000000000000000000000000000000000000000000000000000000000000000000000000000000000000000000000000000000000000000000000000000000000000000000000000000000000000000000000000000000000000000000000000000000000000000000000000000000000000000000000000000000000000000000000000000000000000000000000000000000000000000000000000000000000000000000000000000000000000000000000000000000000000000000000000000000000000000000000000000000000000000000000000000000000000000000000000000000000000000000000000000000000000000000000000000000000000000000000000000000000000000000000000000000000000000000000000000000000000000000000000000000000000000000000000000000000000000000000000000000000000000000000000000000000000000000000000000000000000000000000000000000000000000000000000000000000000000000000000000000000000000000000000000000000000000000000000000000000000000000000000000000000000000000000000000000000000000000000000000000000000000000000000000000000000000000000000000000000000000000000000000000000000000000000000000000000000000000000000000000000000000000000000000000000000000000000000000000000000000000000000000000000000000000000000000000000000000000000000000000000000000000000000000000000000000000000000000000000000000000000000000000000000000000000000000000000000000000000000000000000000000000000000000000000000000000000000000000000000000000000000000000000000000000000000000000000000000000000000000000000000000000000000000000000000000000000000000000000000000000000000000000000000000000000000000000000000000000000000000000000000000000000000000000000000000000000000000000000000000000000000000000000000000000000000000000000000000000000
#1039b0:00230000
#103980:000000000000000000000000000000000000000000000000000000000000000000000000000000000000000000000000000000000000000000000000000000000000000000000000000000000000000000000000000000000000000000000000000000000000000000000000000000000000000000000000000000000000000000000000000000000000000000000000000000000000000000000000000000000000000000000000000000000000000000000000000000000000000000000000000000000000000000000000000000000000000000000000000000000000000000000000000000000000000000000000000000000000000000000000000000000000000000000000000000000000000000000000000000000000000000000000000000000000000000000000000000000000000000000000000000000000000000000000000000000000000000000000000000000000000000000000000000000000000000000000000000000000000000000000000000000000000000000000000000000000000000000000000000000000000000000000000000000000000000000000000000000000000000000000000000000000000000000000000000000000000000000000000000000000000000000000000000000000000000000000000000000000000000000000000000000000000000000000000000000000000000000000000000000000000000000000000000000000000000000000000000000000000000000000000000000000000000000000000000000000000000000000000000000000000000000000000000000000000000000000000000000000000000000000000000000000000000000000000000000000000000000000000000000000000000000000000000000000000000000000000000000000000000000000000000000000000000000000000000000000000000000000000000000000000000000000000000000000000000000000000000000000000000000000000000000000000000000000000000000000000000000000000000000000000000000000000000000000000000000000000000000000000000000000000000000000000000000000000000000000000000000000000000000000000000000000000000000000000000000000000000000000000000000000000000000000000000000000000000000000000000000000000000000000000000000000000000000000000000000000000000000000000000000000000000000000000000000000000000000000000000000000000000000000000000000000000000000000000000000000001300000000000000000000000000000000000000000000000000000000000000000000000000000000000000000000000000000000000000000000000000000000000000000000000000000000000000000000000000000000000000000000000000000000000000000000000000000000000000000000000000000000000000000000000000000000000000000000000000000000000000000000000000000000000000000000000000000000000000000000000000000000000000000000000000000000000000000000000000000000000000000000000000000000000000000000000000000000000000000000000000000000000000000000000000000000000000000000000000000000000000000000000000000000000000000000000000000000000000000000000000000000000000000000000000000000000000000000000000000000000000000000000000000000000000000000000000000000000000000000000000000000000000000000000000000000000000000000000000000000000000000000000000000000000000000000000000000000000000000000000000000000000000000000000000000000000000000000000000000000000000000000000000000000000000000000000000000000000000000000000000000000000000000000000000000000000000000000000000000000000000000000000000000000000000000000000000000000000000000000000000000000000000000000000000000000000000000000000000000000000000000000000000000000000000000000000000000000000000000000000000000000000000000000000000000000000000000000000000000000000000000000000000000000000000000000000000000000000000000000000000000000000000000000000000000000000000000000000000000000000000000000000000000000000000000000000000000000000000000000000000000000000000000000000000000000000000000000000000000000000000000000000000000000000000000000000000000000000000000000000000000000000000000000000000000000000000000000000000000000000000000000000000000000000000000000000000000000000000000000000000000000000000000000000000000000000000000000000000000000000000000000000000000000000000000000000000000000000000000000000000000000000000000000000000000000000000000000000000000000000000000000000000000000000000000000000000000000000000000000
#103920:0000000000230000
#104980:0012
#104920:00000000000000000000002200000000
#104960:00000012
#1049c0:00000000000000000000000000000022
#107960:0012000000000000
#107920:00220000
#107980:0000001200000000
#1079c0:0022
#107960:0000000000120000
#107920:00000022
#1079c1:0000000000120000
#107961:00000000000000000000000000520000
#1089c1:22
#1089c1:0012000022000000
#108961:00000000005200000000000000000000
#108980:0012000022000000
#108920:00000000005200000000000000000000
#1099a0:0012000000000000
#109960:00220000
#109921:00120000
#109981:00000000000000220000000000000000
#1099c1:0012
#109961:00000000000000000000002200000000
#110941:00000000000000000012000000000000
#1109a1:00000052
#111921:22
#111961:00120000
#1119c1:00000000000000220000000000000000
#111981:0012
#111921:00000000000000000000002200000000
#111961:00000012
#1119c1:00000000000000000000000000000022
#112921:13
#112981:002300
#112940:001300000000000000000000000000000000000000000000
#112970:000000000023000000000000000000000000000000000000
#112962:001300000000000000000000
#112972:0000000000230000
#112933:0013000000000000
#112993:000000000000000000000023000000000000000000000000
#112940:00130000
#1129a0:000000000000002300000000
#112951:0000001300000000
#1129b1:000000000000000000000000000000000023000000000000
#112963:0013
#112993:000023
