This file was generated by Ched 2.7.0.0.
#TITLE ""
#ARTIST ""
#DESIGNER ""
#DIFFICULTY 0
#PLAYLEVEL
#SONGID ""
#WAVE ""
#WAVEOFFSET 0
#JACKET ""
#REQUEST "ticks_per_beat 480"
#00002: 4
#BPM01: 200
#00008: 01
#TIL00: ""
#VOLUME: ""
#HISPEED 00
#MEASUREHS 00
#00112:14
#00118:0014
#0031a:14
#00314:0014
#00512:14
#00518:0014
#0071a:14
#00714:0014
#00912:1414
#00918:00140000
#01018:14
#01012:0014
#0111a:1414
#01114:00140000
#01214:14
#0121a:0014
#01312:1414
#01318:00140000
#01418:14
#01412:0014
#0151a:14
#01514:00140000
#01718:0014
#01712:24
#01710:41
#01814:14
#0181a:0014
#01912:14
#01918:0014
#02014:14
#0201a:0014
#02114:14
#0211a:0014
#02212:14
#02218:0014
#02314:14
#0231a:0014
#02412:14
#02418:0014
#02512:14
#0251a:0014
#02614:1414
#02618:00140000
#0271a:14
#02712:0014
#02818:1414
#02814:00140000
#02912:14
#0291a:0014
#03014:1414
#03018:00140000
#0311a:14
#03112:0014
#03218:1414
#03214:00140000
#03312:2414
#03310:41
#03514:14
#0351a:0014
#0371a:1414
#03918:14
#03912:0014
#04514:1414
#0471a:1414
#04112:1414
#04110:41
#04318:1414
#06518:00140000
#06514:0014
#0651a:00000014
#06512:24
#0651f:21
#06614:14
#06618:00140000
#06612:0014
#06616:00000014
#06610:41
#06814:0014
#06914:00140000
#06918:0014
#06912:00000014
#0691a:14
#07018:14
#07014:00140000
#0701a:0014
#07016:00000014
#0721a:0014
#07314:14
#07318:00140000
#07312:00001414
#07418:14
#07414:00140000
#0741a:00001414
#0761a:0014
#07612:00000014
#07718:14
#07714:00140000
#0771a:00001414
#07814:14
#07818:00140000
#07812:00001414
#0791a:14
#07917:0014
#08114:0014
#0811a:00000014
#08112:14
#08118:00240000
#08110:00410000
#08214:14
#08218:00140000
#08212:0014
#08216:00000014
#08414:0014
#08514:00140000
#08518:0014
#08512:00000014
#0851a:14
#08618:14
#08614:00140000
#0861a:0014
#08616:00000014
#0881a:0014
#08914:14
#08918:00140000
#08912:00001414
#09018:14
#09014:00140000
#0901a:00001414
#0921a:00140000
#09216:0014
#09212:00000014
#09318:14
#09314:00140000
#0931a:00001414
#09414:14
#09418:00140000
#09412:00001414
#0951a:14
#09517:0014
#09712:14
#0971a:0014
#09710:41
#09814:1414
#09818:00140000
#0991a:14
#09912:0014
#10018:1414
#10014:00140000
#10112:1414
#1021a:14
#10212:00140000
#10218:0014
#10214:00000014
#1031a:1414
#10412:14
#1041a:00140000
#10414:0014
#10418:00000014
#0491f:11
#0165a:0000001400000000
#07254:14
#0725a:0014
#06858:14
#07654:14
#07957:0024
#0795a:64
#08854:14
#0885a:0014
#08458:14
#0955a:64
#09557:0024
#09252:14
#0965a:14
#09854:0014
#10058:0014
#02154:14
#01752:14
#02552:14
#0275a:14
#02952:14
#0315a:14
#05052:14
#05258:14
#05454:14
#0565a:14
#05854:14
#06058:14
#06252:14
#0645a:14
#002320:1424
#0043a0:1424
#006320:1424
#0083a0:1424
#0153a0:0000000014000034
#0163a0:0034002400000000
#034380:1424
#036320:1424
#038340:1424
#0403a0:1424
#042320:1424
#044380:1424
#046340:1424
#0483a0:1424
#049320:14
#050320:24
#051380:14
#052380:24
#053340:14
#054340:24
#0553a0:14
#0563a0:24
#057320:14
#057340:0034
#058340:24
#0593a0:14
#059380:0034
#060380:24
#061340:14
#061320:0034
#062320:24
#063380:14
#0633a0:0034
#0643a0:24
#0673a0:1400003400000000
#067380:00000034
#068380:24
#071320:14
#072340:24
#075320:1400003400000000
#075340:00000034
#076340:24
#0793a0:14
#079370:0054
#0803a0:24
#0833a0:1400003400000000
#083380:00000034
#084380:24
#087320:14
#088340:24
#091320:14000034
#091340:0000003400000000
#092320:24
#0953a0:14
#095370:0054
#0963a0:24
#105320:14
#105340:0034
#106340:34
#106320:0024
#1073a0:14
#107380:0034
#108380:34
#1083a0:0024
#109340:14
#109320:0034
#110320:34
#110340:0024
#111380:14
#1113a0:0034
#1123a0:34
#112380:00000000000000000000000000000036
#115380:23
